Welcome Guest ( Log In | Register )

> Releases Upload / Добавление релизов

Добавить релиз тут / Click here to add release
Рекомендованные обменники / Recommended file shares

> Praise The Plague - Antagonist (2018), Blackened Doom/Post-Metal
post Sep 14 2018, 03:07:51
Post #1

Serial Uploader
Group Icon
Group: V.I.P
Posts: 33,064
Releases: 31349
From: Lithuania
On Forums: 10 years 3 months
Thanks: 358623 time(s)
Lithuania


(IMG:http://metalarea.org/images/audiocovers/2018_Sep/acov_tid310575_thumb.jpg)

*Artist: Praise The Plague
*Album: Antagonist
*Year: 2018
*Genre: Blackened Doom/Post-Metal
*Country: Germany (IMG:http://metalarea.org/forum/style_images/flags/Germany.png)
*Format: mp3@CBR320kbps
*Size: 65MB

Tracklist:
01. Inferno (Prelude) 02:15
02. Anatomy of possession 04:52
03. Blackening Swarm 04:59
04. Minatory Aeons 04:37
05. Darkest of Seas 05:36
06. Antagonist 05:56
******************************
Total playing time: 28:15




Technical info
(IMG:http://metalarea.org/images/spectrogram/2018_Sep/de8ecb197e21e8f47584694edcc29a95.png)
Input File: 02. Anatomy of Possession.mp3
Channels : 2
Sample Rate : 44100
Precision : 16-bit
Duration : 00:04:52.17 = 12884785 samples = 21912.9 CDDA sectors
File Size : 11.7M
Bit Rate : 320k
Sample Encoding: MPEG audio (layer I, II or III)
Comments :
Title=Anatomy of Possession
Artist=Praise the Plague
Album=Antagonist
Tracknumber=2/6
Year=2018
Discnumber=1/1



Register


Go to the top of the page
  Insert nick Quick quote
+Quote Post
 
Start new topic
Replies (1 - 2)
post Sep 14 2018, 04:53:50
Post #2

Два Литра
**
Group: Завсегдатай
Posts: 158
Releases: 0
From: Россия
On Forums: 6 years 7 months
Thanks: 52 time(s)
Russian Federation


Тип релиза ЕР Deren Debüt-EP "Antagonist" erscheint heute via Black Omega Recordings

http://www.trvelove.de/reviews/plattenrevi...gue-antagonist/
Go to the top of the page
  Insert nick Quick quote
+Quote Post
post Sep 15 2018, 16:44:33
Post #3

Маньяк
**********
Group: Металариец
Posts: 1,318
Releases: 0
From: Dnipro
On Forums: 10 years 2 months
Thanks: 366 time(s)
Ukraine


Вот это я понимаю музло, весчь!!!! (IMG:style_emoticons/default/20.gif)
Go to the top of the page
  Insert nick Quick quote
+Quote Post

Reply to this topicStart new topic
2 User(s) are reading this topic (2 Guests and 0 Anonymous Users)
0 Members:

 



- Lo-Fi Version Support form
Copyrights and abuse reports form
Time is now: 23rd September 2018 - 04:33:03