Welcome Guest ( Log In | Register )

 
Reply to this topicStart new topic
> Liha - Liha (2018), Groove/Thrash Metal
post Sep 14 2018, 03:31:05
Post #1

Serial Uploader
Group Icon
Group: V.I.P
Posts: 33,280
Releases: 31556
From: Lithuania
On Forums: 10 years 5 months
Thanks: 360441 time(s)
Lithuania


(IMG:http://metalarea.org/images/audiocovers/2018_Sep/acov_tid310576_thumb.jpg)

*Artist: Liha
*Album: Liha
*Year: 2018
*Genre: Groove/Thrash Metal
*Country: Finland (IMG:http://metalarea.org/forum/style_images/flags/Finland.png)
*Format: mp3@CBR320kbps
*Size: 97MB

Tracklist:
01. Viinaa Luotolla
02. Syrjitty, Menetetty, Kadotettu
03. Väkivalta
04. Viha
05. Elvis Elää
06. Yhden Tähden Kuningas
07. Perintö
08. Helvetinkoira
09. Ryfo (Bonus Track)
******************************
Total playing time: 41:29

Technical info
(IMG:http://metalarea.org/images/spectrogram/2018_Sep/f2ffc03b22d796d582bef8a24c4ae173.png)
Input File: 02. Syrjitty, Menetetty, Kadotettu.mp3
Channels : 2
Sample Rate : 44100
Precision : 16-bit
Duration : 00:03:43.36 = 9850264 samples = 16752.1 CDDA sectors
File Size : 9.17M
Bit Rate : 328k
Sample Encoding: MPEG audio (layer I, II or III)
Comments :
Title=Syrjitty, Menetetty, Kadotettu
Artist=Liha
Album=Liha
Tracknumber=2
Year=2018
Discnumber=1/1



Register


Go to the top of the page
  Insert nick Quick quote
+Quote Post

Reply to this topicStart new topic
1 User(s) are reading this topic (1 Guests and 0 Anonymous Users)
0 Members:

 



- Lo-Fi Version Support form
Copyrights and abuse reports form
Time is now: 14th November 2018 - 15:11:26