Welcome Guest ( Log In | Register )

> Garagedays - Here It Comes (2018), Heavy Metal
post Sep 14 2018, 03:37:46
Post #1

Serial Uploader
Group Icon
Group: V.I.P
Posts: 33,280
Releases: 31556
From: Lithuania
On Forums: 10 years 5 months
Thanks: 360439 time(s)
Lithuania


(IMG:http://metalarea.org/images/audiocovers/2018_Sep/acov_tid310577_thumb.jpg)

*Artist: Garagedays
*Album: Here It Comes
*Year: 2018
*Genre: Heavy Metal
*Country: Austria (IMG:http://metalarea.org/forum/style_images/flags/Austria.png)
*Format: mp3@CBR320kbps
*Size: 115MB

Tracklist:
01. Here It Comes
02. Turns to Black
03. The Beginning and the End of It All
04. Devil
05. I Have Seen
06. Paradise Lost
07. Reptile
08. L.E.M.M.Ypsilon
09. The Sword
10. Philosophy (Instrumental)
******************************
Total playing time: 50:06



Technical info
(IMG:http://metalarea.org/images/spectrogram/2018_Sep/8f2f0bfe49fc9fb5aaa1e46b300194aa.png)
Input File: 02. Turns to Black.mp3
Channels : 2
Sample Rate : 44100
Precision : 16-bit
Duration : 00:04:35.71 = 12158987 samples = 20678.5 CDDA sectors
File Size : 11.0M
Bit Rate : 320k
Sample Encoding: MPEG audio (layer I, II or III)
Comments :
Title=Turns to Black
Artist=Garagedays
Album=Here It Comes
Tracknumber=2/10
Year=2018



Register


Go to the top of the page
  Insert nick Quick quote
+Quote Post
 
Start new topic
Replies (1 - 5)
post Sep 14 2018, 06:04:38
Post #2

MDM-Thrash Metal
**************
Group: Металариец
Posts: 7,235
Releases: 422
From: Одесса
On Forums: 11 years 3 months
Thanks: 13760 time(s)
Ukraine


Register


Thanks:
(1) postal67,
Go to the top of the page
  Insert nick Quick quote
+Quote Post
post Sep 14 2018, 12:46:44
Post #3

hearer & reader
**************
Group: Металариец
Posts: 7,115
Releases: 91
From: Moscow
On Forums: 11 years 2 months
Thanks: 6768 time(s)
Russian Federation


Забавно было бы, если бы на обложке ухо было в другом месте..
Go to the top of the page
  Insert nick Quick quote
+Quote Post
post Sep 16 2018, 15:38:35
Post #4

South Of Heaven /адепт ВУДУ
**************
Group: Металариец
Posts: 13,162
Releases: 7
From: Санкт-Петербург
On Forums: 8 years 7 months
Thanks: 4800 time(s)
Russian Federation


Послушал (пока по диагонали) все три их альбома, предварительный диагноз: интересный хэви созидают, что в новоделе большая редкость.
Go to the top of the page
  Insert nick Quick quote
+Quote Post
post Sep 30 2018, 14:54:38
Post #5

Перевозчик
**************
Group: Металариец
Posts: 2,778
Releases: 0
On Forums: 10 years 4 months
Thanks: 575 time(s)
Russian Federation


Go to the top of the page
  Insert nick Quick quote
+Quote Post
post Sep 30 2018, 15:05:29
Post #6

ретроград
**************
Group: Металариец
Posts: 4,594
Releases: 176
On Forums: 11 years 4 months
Thanks: 6664 time(s)
Vatican City


ЦИТАТА(AHBAnep @ Sep 14 2018, 14:46:44) *
Забавно было бы, если бы на обложке ухо было в другом месте..

И букву одну в названии поменять
Go to the top of the page
  Insert nick Quick quote
+Quote Post

Reply to this topicStart new topic
1 User(s) are reading this topic (1 Guests and 0 Anonymous Users)
0 Members:

 



- Lo-Fi Version Support form
Copyrights and abuse reports form
Time is now: 14th November 2018 - 14:23:06