Welcome Guest ( Log In | Register )

> Releases Upload / Добавление релизов

Добавить релиз тут / Click here to add release
Рекомендованные обменники / Recommended file shares

> Vault Of Acanthus - Life, Light And Darkness (2018), Progressive/Symphonic Metal
post Sep 14 2018, 03:47:59
Post #1

Serial Uploader
Group Icon
Group: V.I.P
Posts: 33,064
Releases: 31349
From: Lithuania
On Forums: 10 years 3 months
Thanks: 358623 time(s)
Lithuania


(IMG:http://metalarea.org/images/audiocovers/2018_Sep/acov_tid310578_thumb.jpg)

*Artist: Vault Of Acanthus
*Album: Life, Light And Darkness
*Year: 2018
*Genre: Progressive/Symphonic Metal
*Country: Greece (IMG:http://metalarea.org/forum/style_images/flags/Greece.png)
*Format: mp3@CBR320kbps
*Size: 148MB

Tracklist:
01. Thread of Fate
02. A Constant End
03. The Hope Inside Me
04. Distant Smile
05. The Inner Mirror of Universe
06. Timeflower
07. This Face
08. Life, Light and Darkness
******************************
Total playing time: 1:04:37



Technical info
(IMG:http://metalarea.org/images/spectrogram/2018_Sep/1931ff5b6b24a30e8fbb4768d3019ba1.png)
Input File: 02. A Constant End.mp3
Channels : 2
Sample Rate : 44100
Precision : 16-bit
Duration : 00:05:57.67 = 15773027 samples = 26824.9 CDDA sectors
File Size : 14.3M
Bit Rate : 320k
Sample Encoding: MPEG audio (layer I, II or III)
Comments :
Title=A Constant End
Artist=Vault of Acanthus
Album=Life, Light and Darkness
Tracknumber=2
Year=2018
Discnumber=1/1



Register


Go to the top of the page
  Insert nick Quick quote
+Quote Post
 
Start new topic
Replies (1 - 2)
post Sep 14 2018, 06:29:59
Post #2

MDM-Thrash Metal
**************
Group: Металариец
Posts: 7,061
Releases: 412
From: Одесса
On Forums: 11 years 1 month
Thanks: 13450 time(s)
Ukraine


Register


Thanks:
Go to the top of the page
  Insert nick Quick quote
+Quote Post
post Sep 14 2018, 10:33:06
Post #3

hearer & reader
**************
Group: Металариец
Posts: 6,867
Releases: 86
From: Moscow
On Forums: 11 years 2 weeks
Thanks: 6618 time(s)
Russian Federation



Спектры а-ля 192, вокал женский фекальный, симфонизм отстойный. Позорят Грецию.
Go to the top of the page
  Insert nick Quick quote
+Quote Post

Reply to this topicStart new topic
1 User(s) are reading this topic (1 Guests and 0 Anonymous Users)
0 Members:

 



- Lo-Fi Version Support form
Copyrights and abuse reports form
Time is now: 23rd September 2018 - 04:51:41