Welcome Guest ( Log In | Register )

> Releases Upload / Добавление релизов

Добавить релиз тут / Click here to add release
Рекомендованные обменники / Recommended file shares

> Processor - Heliopolis (2018), Thrash/Death Metal
post Sep 14 2018, 04:12:47
Post #1

Правь статус, ####!111
**************
Group: Металариец
Posts: 14,305
Releases: 9914
From: Г.Харьков
On Forums: 6 years 4 months
Thanks: 162716 time(s)
Unknown


(IMG:https://metalarea.org/images/audiocovers/2018_Sep/acov_tid310579_thumb.jpg)

*Artist: Processor
*Album: Heliopolis
*Year: 2018
*Genre: Thrash/Death Metal
*Country: Germany (IMG:https://metalarea.org/forum/style_images/flags/Germany.png)
*Format: mp3@CBR320kbps
*Size: 100MB

Tracklist:
1. Rip TV
2. Vaporized Space
3. Fodder for the Grinder
4. Phyresis
5. Heliopolis
6. Pest Generator
7. Sentenced to a Lifetime
8. Phosphor
******************************
Total playing time: 40:45




Extended info
Drums - Matthias Hansel
Vocals - Jul Schumertl
Bass - Julian Planer
Guitar - Christian Kirr


Technical info
(IMG:https://metalarea.org/images/spectrogram/2018_Sep/f3647669fae4fea1f93269affa8f0537.png)
Input File: 03 Fodder for the Grinder.mp3
Channels : 2
Sample Rate : 44100
Precision : 16-bit
Duration : 00:05:08.53 = 13605997 samples = 23139.5 CDDA sectors
File Size : 13.2M
Bit Rate : 342k
Sample Encoding: MPEG audio (layer I, II or III)
Comments :
Title=Fodder for the Grinder
Artist=Processor
Album=Heliopolis
Tracknumber=3/8
Year=2018
Genre=Thrash Metal
Discnumber=1/1



Register


Go to the top of the page
  Insert nick Quick quote
+Quote Post
 
Start new topic
Replies (1 - 1)
post Sep 14 2018, 04:40:38
Post #2

Правь статус, ####!111
**************
Group: Металариец
Posts: 14,305
Releases: 9914
From: Г.Харьков
On Forums: 6 years 4 months
Thanks: 162716 time(s)
Unknown


Cloud Mail 320
Register


Go to the top of the page
  Insert nick Quick quote
+Quote Post

Reply to this topicStart new topic
2 User(s) are reading this topic (2 Guests and 0 Anonymous Users)
0 Members:

 



- Lo-Fi Version Support form
Copyrights and abuse reports form
Time is now: 23rd September 2018 - 03:12:00