Welcome Guest ( Log In | Register )

> Releases Upload / Добавление релизов

Добавить релиз тут / Click here to add release
Рекомендованные обменники / Recommended file shares

> Destroy Clocks - Tarot (2018), Post-Metal
post Sep 14 2018, 06:18:48
Post #1

Аннигилятор пивА
Group Icon
Group: V.I.P
Posts: 48,833
Releases: 14936
From: Koenigsberg - TILZIT
On Forums: 12 years 3 months
Thanks: 327227 time(s)
Russian Federation


(IMG:https://metalarea.org/images/audiocovers/2018_Sep/acov_tid310580_thumb.jpg)

*Artist: Destroy Clocks
*Album: Tarot
*Year: 2018
*Genre: Post-Metal
*Country: Norway (IMG:https://metalarea.org/forum/style_images/flags/Norway.png)
*Format: mp3@CBR320kbps
*Size: 105MB

Tracklist:
01. Pale Horse 05:45
02. Highway Eyes 06:31
03. Throwing Shade 04:02
04. Nervous System 05:08
05. Tin Man 04:46
06. Halifax Myst 04:34
07. Counting The Days 07:53
08. Witch House 06:33
******************************
Total playing time: 45:12



Extended info
Nicole Lefebvre - Keyboards, Vocals
Kevin N. Hell - Guitars, Vocals
Tyler Black - Drums



Technical info
(IMG:https://metalarea.org/images/spectrogram/2018_Sep/3eba1297864f5f521a4776c3e2989e7f.png)
Input File: 01 Pale Horse.mp3
Channels : 2
Sample Rate : 44100
Precision : 16-bit
Duration : 00:05:45.62 = 15241798 samples = 25921.4 CDDA sectors
File Size : 13.8M
Bit Rate : 320k
Sample Encoding: MPEG audio (layer I, II or III)
Comments :
Title=Pale Horse
Artist=Destroy Clocks
Album=Tarot
Tracknumber=01/08
Year=2018
Discnumber=1/1



Register


Go to the top of the page
  Insert nick Quick quote
+Quote Post
 
Start new topic
Replies (1 - 1)
post Sep 15 2018, 21:14:50
Post #2

Шесть Литров
******
Group: Металариец
Posts: 576
Releases: 0
From: Черкассы
On Forums: 6 years 9 months
Thanks: 79 time(s)
Ukraine



Go to the top of the page
  Insert nick Quick quote
+Quote Post

Reply to this topicStart new topic
1 User(s) are reading this topic (1 Guests and 0 Anonymous Users)
0 Members:

 



- Lo-Fi Version Support form
Copyrights and abuse reports form
Time is now: 21st September 2018 - 09:44:46