Welcome Guest ( Log In | Register )

 
Reply to this topicStart new topic
> Distal Descent - Vessels Of Madness (2018), Thrash Metal
post Sep 14 2018, 06:29:05
Post #1

Аннигилятор пивА
Group Icon
Group: V.I.P
Posts: 50,265
Releases: 15592
From: Koenigsberg - TILZIT
On Forums: 12 years 5 months
Thanks: 338850 time(s)
Russian Federation


(IMG:https://metalarea.org/images/audiocovers/2018_Sep/acov_tid310581_thumb.jpg)

*Artist: Distal Descent
*Album: Vessels Of Madness
*Year: 2018
*Genre: Thrash Metal
*Country: United States (IMG:https://metalarea.org/forum/style_images/flags/United%20States.png)
*Format: mp3@CBR320kbps
*Size: 105MB

Tracklist:
01. Into the Darkness
02. Suffer
03. Unlife
04. Bullet Train
05. Irrelevance
06. Man vs. Machine
07. Like a Slave
08. Momento Mori
09. Punch Drunk
10. Time of Regret
******************************
Total playing time: 45:41

Extended info


Technical info
(IMG:https://metalarea.org/images/spectrogram/2018_Sep/7c06a839a870a8848460e7072d2a2e87.png)
Input File: 02. Suffer.mp3
Channels : 2
Sample Rate : 44100
Precision : 16-bit
Duration : 00:04:05.65 = 10832989 samples = 18423.5 CDDA sectors
File Size : 9.88M
Bit Rate : 322k
Sample Encoding: MPEG audio (layer I, II or III)
Comments :
Title=Suffer
Artist=Distal Descent
Album=Vessels of Madness
Tracknumber=2/10
Year=2018
Genre=Thrash Metal



Register


Go to the top of the page
  Insert nick Quick quote
+Quote Post

Reply to this topicStart new topic
1 User(s) are reading this topic (1 Guests and 0 Anonymous Users)
0 Members:

 



- Lo-Fi Version Support form
Copyrights and abuse reports form
Time is now: 14th November 2018 - 18:20:47