Welcome Guest ( Log In | Register )

> Releases Upload / Добавление релизов

Добавить релиз тут / Click here to add release
Рекомендованные обменники / Recommended file shares

 
Reply to this topicStart new topic
> Gnosis - Dweller On The Threshold [ep] (2018), Sludge/Doom/Death Metal
post Sep 14 2018, 06:41:32
Post #1

Аннигилятор пивА
Group Icon
Group: V.I.P
Posts: 48,881
Releases: 14966
From: Koenigsberg - TILZIT
On Forums: 12 years 3 months
Thanks: 327600 time(s)
Russian Federation


(IMG:https://metalarea.org/images/audiocovers/2018_Sep/acov_tid310582_thumb.jpg)

*Artist: Gnosis
*Album: Dweller On The Threshold [ep]
*Year: 2018
*Genre: Sludge/Doom/Death Metal
*Country: Canada (IMG:https://metalarea.org/forum/style_images/flags/Canada.png)
*Format: mp3@CBR320kbps
*Size: 65MB

Tracklist:
1. Part I: Forbidden Pilgrimage 06:04
2. Part II: The Feast 05:45
3. Part III: Creeping Dread 05:45
4. Part IV: Between Planes 02:12
5. Part V: Extermination 07:46
******************************
Total playing time: 27:32




Extended info


Technical info
(IMG:https://metalarea.org/images/spectrogram/2018_Sep/5b70849d3a42002e1ce91ccc7cc731dd.png)
Input File: Gnosis - Dweller on the Threshold - 02 Part II- The Feast.mp3
Channels : 2
Sample Rate : 44100
Precision : 16-bit
Duration : 00:05:45.75 = 15247531 samples = 25931.2 CDDA sectors
File Size : 14.0M
Bit Rate : 324k
Sample Encoding: MPEG audio (layer I, II or III)
Comments :
Title=Part II: The Feast
Artist=Gnosis
Album=Dweller on the Threshold
Tracknumber=2
Year=2018



Register


Go to the top of the page
  Insert nick Quick quote
+Quote Post

Reply to this topicStart new topic
2 User(s) are reading this topic (2 Guests and 0 Anonymous Users)
0 Members:

 



- Lo-Fi Version Support form
Copyrights and abuse reports form
Time is now: 23rd September 2018 - 03:26:20