Welcome Guest ( Log In | Register )

> Releases Upload / Добавление релизов

Добавить релиз тут / Click here to add release
Рекомендованные обменники / Recommended file shares

 
Reply to this topicStart new topic
> Xing Dong - Awakening (2018), Progressive Groove/Thrash Metal
post Sep 14 2018, 07:04:51
Post #1

Аннигилятор пивА
Group Icon
Group: V.I.P
Posts: 48,881
Releases: 14966
From: Koenigsberg - TILZIT
On Forums: 12 years 3 months
Thanks: 327621 time(s)
Russian Federation


(IMG:https://metalarea.org/images/audiocovers/2018_Sep/acov_tid310583_thumb.jpg)

*Artist: Xing Dong
*Album: Awakening
*Year: 2018
*Genre: Progressive Groove/Thrash Metal
*Country: China (IMG:https://metalarea.org/forum/style_images/flags/China.png)
*Format: mp3@CBR320kbps
*Size: 93MB

Tracklist:
01. Prelude
02. The Principle of Time
03. Real Society
04. Eye of Desire
05. Dream Corridor
06. Eternal Journey
07. Human Made
08. The Black City
09. Doomsday
10. Be Alive
11. Miss Without Say
******************************
Total playing time: 41:53

Technical info
(IMG:https://metalarea.org/images/spectrogram/2018_Sep/c08166ae3b4ef173e163832868b622de.png)
Input File: 03. Real Society.mp3
Channels : 2
Sample Rate : 44100
Precision : 16-bit
Duration : 00:03:53.09 = 10279049 samples = 17481.4 CDDA sectors
File Size : 9.52M
Bit Rate : 327k
Sample Encoding: MPEG audio (layer I, II or III)
Comments :
Title=Real Society
Artist=Xing Dong
Album=Awakening
Tracknumber=3
Year=2018
Genre=Progressive Metal
Discnumber=1



Register


Go to the top of the page
  Insert nick Quick quote
+Quote Post

Reply to this topicStart new topic
2 User(s) are reading this topic (2 Guests and 0 Anonymous Users)
0 Members:

 



- Lo-Fi Version Support form
Copyrights and abuse reports form
Time is now: 23rd September 2018 - 04:43:11