Welcome Guest ( Log In | Register )

> Releases Upload / Добавление релизов

Добавить релиз тут / Click here to add release
Рекомендованные обменники / Recommended file shares

 
Reply to this topicStart new topic
> Dittohead - Playing With Death (2018), Thrash Metal
post Sep 14 2018, 07:46:11
Post #1

Аннигилятор пивА
Group Icon
Group: V.I.P
Posts: 48,833
Releases: 14936
From: Koenigsberg - TILZIT
On Forums: 12 years 3 months
Thanks: 327229 time(s)
Russian Federation


(IMG:https://metalarea.org/images/audiocovers/2018_Sep/acov_tid310584_thumb.jpg)

*Artist: Dittohead
*Album: Playing With Death
*Year: 2018
*Genre: Thrash Metal
*Country: Belarus (IMG:https://metalarea.org/forum/style_images/flags/Belarus.png)
*Format: mp3@CBR320kbps
*Size: 75MB

Tracklist:
1. Infected 03:41
2. Cure 03:20
3. Hells Patrol 04:07
4. Playing with Death 06:00
5. Crime 04:00
6. Metal Power 03:29
7. Vision 03:53
8. Metalhead 03:39
******************************
Total playing time: 32:09




Extended info
Alexey Selvanovich - Bass (2013-present)
Fedor Burak - Drums (2013-present)
Denis Klimakov - Guitars (2013-present)
Alexandr Kozlov - Guitars, Vocals (2013-present)


Technical info
(IMG:https://metalarea.org/images/spectrogram/2018_Sep/a300e835a68a593c04253c5e04404bed.png)
Input File: 02. Cure.mp3
Channels : 2
Sample Rate : 48000
Precision : 16-bit
Duration : 00:03:20.45 = 9621648 samples ~ 15033.8 CDDA sectors
File Size : 8.06M
Bit Rate : 322k
Sample Encoding: MPEG audio (layer I, II or III)
Comments :
Title=Cure
Artist=Dittohead
Album=Playing with Death
Tracknumber=2
Year=2018
Genre=Thrash Metal



Register


Go to the top of the page
  Insert nick Quick quote
+Quote Post

Reply to this topicStart new topic
1 User(s) are reading this topic (1 Guests and 0 Anonymous Users)
0 Members:

 



- Lo-Fi Version Support form
Copyrights and abuse reports form
Time is now: 21st September 2018 - 10:12:57