Welcome Guest ( Log In | Register )

> Releases Upload / Добавление релизов

Добавить релиз тут / Click here to add release
Рекомендованные обменники / Recommended file shares

> Tribulation - Nightbound [single] (2018), Progressive Dark Metal (D)
post Sep 14 2018, 07:54:14
Post #1

Аннигилятор пивА
Group Icon
Group: V.I.P
Posts: 48,881
Releases: 14964
From: Koenigsberg - TILZIT
On Forums: 12 years 3 months
Thanks: 327597 time(s)
Russian Federation


(IMG:https://metalarea.org/images/audiocovers/2018_Sep/acov_tid310585_thumb.jpg)

*Artist: Tribulation
*Album: Nightbound [single]
*Year: 2018
*Genre: Progressive Dark Metal
*Country: Sweden (IMG:https://metalarea.org/forum/style_images/flags/Sweden.png)
*Format: mp3@CBR320kbps
*Size: 36MB

Tracklist:
01. Nightbound 05:29
02. Nightbound (live version) 05:35
03. Nightbound (instrumental demo) 05:29
******************************
Total playing time: 16:33



Extended info
Johannes Andersson - Bass, Vocals (2004-present) See also: ex-Sars, ex-Stench, ex-Hazard, CC Company
Adam Zaars - Guitars (2004-present) See also: Repugnant, ex-Sars, ex-Hazard, ex-Enforcer
Jonathan Hultén - Guitars (2004-present) See also: ex-Guerilla, ex-Stench, ex-Hazard, Jonathan Hultén
Oscar Leander - Drums (2017-present) See also: ex-Deathstars


Technical info
(IMG:https://metalarea.org/images/spectrogram/2018_Sep/8d2d4f4e2223c2f6883db616e9868fee.png)
Input File: 01-tribulation-nightbound-631ca503.mp3
Channels : 2
Sample Rate : 44100
Precision : 16-bit
Duration : 00:05:29.40 = 14526496 samples = 24704.9 CDDA sectors
File Size : 13.3M
Bit Rate : 323k
Sample Encoding: MPEG audio (layer I, II or III)
Comments :
Title=Nightbound
Artist=Tribulation
Album=Nightbound
Tracknumber=1/3
Year=2018
Genre=Metal



Register


Go to the top of the page
  Insert nick Quick quote
+Quote Post
 
Start new topic
Replies (1 - 1)
post Sep 15 2018, 07:04:45
Post #2

Наливай!
**************
Group: Металариец
Posts: 5,098
Releases: 27
From: Москва-Бибирево
On Forums: 10 years 6 months
Thanks: 2397 time(s)
Russian Federation


На прошлом же альбоме была (IMG:style_emoticons/default/hmm.gif)
Go to the top of the page
  Insert nick Quick quote
+Quote Post

Reply to this topicStart new topic
2 User(s) are reading this topic (2 Guests and 0 Anonymous Users)
0 Members:

 



- Lo-Fi Version Support form
Copyrights and abuse reports form
Time is now: 23rd September 2018 - 03:11:55