Welcome Guest ( Log In | Register )

> Releases Upload / Добавление релизов

Добавить релиз тут / Click here to add release
Рекомендованные обменники / Recommended file shares

 
Reply to this topicStart new topic
> Druglord - New Day Dying (2018), Stoner/Doom Metal
post Sep 14 2018, 08:14:23
Post #1

Аннигилятор пивА
Group Icon
Group: V.I.P
Posts: 48,828
Releases: 14936
From: Koenigsberg - TILZIT
On Forums: 12 years 3 months
Thanks: 327223 time(s)
Russian Federation


(IMG:https://metalarea.org/images/audiocovers/2018_Sep/acov_tid310586_thumb.jpg)

*Artist: Druglord
*Album: New Day Dying
*Year: 2018
*Genre: Stoner/Doom Metal
*Country: United States (IMG:https://metalarea.org/forum/style_images/flags/United%20States.png)
*Format: mp3@CBR320kbps
*Size: 86MB

Tracklist:
1. Blood and Body 06:08
2. Walk with God 04:46
3. Rot of this Earth 09:20
4. Buried Demons 06:16
5. The Flesh Is Weak 06:23
6. New Day Dying 08:42
******************************
Total playing time: 41:35




Extended info
Julian Cook - Bass
Bobby - Drums (Unseen Force, ex-Honor Role)
Tommy - Guitars, Vocals


Technical info
(IMG:https://metalarea.org/images/spectrogram/2018_Sep/d2cc3fa8b250af728c594520628a4bff.png)
Input File: 02. Walk With God.mp3
Channels : 2
Sample Rate : 44100
Precision : 16-bit
Duration : 00:04:46.11 = 12617539 samples = 21458.4 CDDA sectors
File Size : 11.5M
Bit Rate : 322k
Sample Encoding: MPEG audio (layer I, II or III)
Comments :
Title=Walk With God
Artist=Druglord
Album=New Day Dying
Tracknumber=2
Year=2018
Discnumber=1



Register


Go to the top of the page
  Insert nick Quick quote
+Quote Post

Reply to this topicStart new topic
1 User(s) are reading this topic (1 Guests and 0 Anonymous Users)
0 Members:

 



- Lo-Fi Version Support form
Copyrights and abuse reports form
Time is now: 21st September 2018 - 08:33:47