Welcome Guest ( Log In | Register )

> Releases Upload / Добавление релизов

Добавить релиз тут / Click here to add release
Рекомендованные обменники / Recommended file shares

> Honesty - Humans Fall (2018), Progressive Thrash Metal
post Sep 14 2018, 08:20:24
Post #1

Аннигилятор пивА
Group Icon
Group: V.I.P
Posts: 48,881
Releases: 14964
From: Koenigsberg - TILZIT
On Forums: 12 years 3 months
Thanks: 327597 time(s)
Russian Federation


(IMG:https://metalarea.org/images/audiocovers/2018_Sep/acov_tid310587_thumb.jpg)

*Artist: Honesty
*Album: Humans Fall
*Year: 2018
*Genre: Progressive Thrash Metal
*Country: Mexico (IMG:https://metalarea.org/forum/style_images/flags/Mexico.png)
*Format: mp3@CBR320kbps
*Size: 105MB

Tracklist:
01. The Dawn Of The Human
02. White Soul
03. Paranormal
04. Humans Fall
05. Pain
06. Aggressive Of Destruction
07. Imminent Contact
08. Never More
09. The Unknown
10. Serious Accident
******************************
Total playing time: 45:21




Extended info
Alejandro Guzmán - Guitar, Lead Vocals & Keyboards
Jorge Munguia - Bass & Vocals
Jesús Solís - Drums




Technical info
(IMG:https://metalarea.org/images/spectrogram/2018_Sep/9f386793e1dc65ccd0dd88a3048f6a8f.png)
Input File: 02 White Soul.mp3
Channels : 2
Sample Rate : 44100
Precision : 16-bit
Duration : 00:03:46.42 = 9985034 samples = 16981.4 CDDA sectors
File Size : 9.06M
Bit Rate : 320k
Sample Encoding: MPEG audio (layer I, II or III)
Comments :
Title=White Soul
Artist=Honesty
Album=Humans Fall
Tracknumber=2/10
Year=2018
Genre=Thrash Metal
Discnumber=1/1



Register


Go to the top of the page
  Insert nick Quick quote
+Quote Post
 
Start new topic
Replies (1 - 1)
post Sep 15 2018, 06:57:10
Post #2

Аннигилятор пивА
Group Icon
Group: V.I.P
Posts: 48,881
Releases: 14964
From: Koenigsberg - TILZIT
On Forums: 12 years 3 months
Thanks: 327597 time(s)
Russian Federation


MIRROR
Register

Go to the top of the page
  Insert nick Quick quote
+Quote Post

Reply to this topicStart new topic
2 User(s) are reading this topic (2 Guests and 0 Anonymous Users)
0 Members:

 



- Lo-Fi Version Support form
Copyrights and abuse reports form
Time is now: 23rd September 2018 - 03:12:24