Welcome Guest ( Log In | Register )

> Releases Upload / Добавление релизов

Добавить релиз тут / Click here to add release
Рекомендованные обменники / Recommended file shares

 
Reply to this topicStart new topic
> Panteon - Death And Darkness (2018), Black/Death Metal (D5)
post Sep 14 2018, 08:25:06
Post #1

Аннигилятор пивА
Group Icon
Group: V.I.P
Posts: 48,881
Releases: 14966
From: Koenigsberg - TILZIT
On Forums: 12 years 3 months
Thanks: 327605 time(s)
Russian Federation


(IMG:https://metalarea.org/images/audiocovers/2018_Sep/acov_tid310588_thumb.png)

*Artist: Panteon
*Album: Death And Darkness
*Year: 2018
*Genre: Black/Death Metal
*Country: United States (IMG:https://metalarea.org/forum/style_images/flags/United%20States.png)
*Format: mp3@CBR320kbps
*Size: 75MB

Tracklist:
1. Whores Of War
2. Legends Of The South
3. King Crow
4. Kill The priest
5. BM Rising
6. The Rite
7. Full Moon
8. The End
******************************
Total playing time: 30:55

Extended info
Daemon - Bass
Aaron Hernandez - Drums
Hannibal Beto - Guitars, Vocals



Technical info
(IMG:https://metalarea.org/images/spectrogram/2018_Sep/d0717376da52fe5913cc1db7b76739ff.png)
Input File: 02 Legends of the South.mp3
Channels : 2
Sample Rate : 44100
Precision : 16-bit
Duration : 00:02:22.46 = 6282310 samples = 10684.2 CDDA sectors
File Size : 6.14M
Bit Rate : 345k
Sample Encoding: MPEG audio (layer I, II or III)
Comments :
Title=Legends of the South
Artist=Panteon
Album=Death and Darkness
Tracknumber=2/8
Year=2018
Genre=Death Metal
Discnumber=1/1



Register


Go to the top of the page
  Insert nick Quick quote
+Quote Post

Reply to this topicStart new topic
2 User(s) are reading this topic (2 Guests and 0 Anonymous Users)
0 Members:

 



- Lo-Fi Version Support form
Copyrights and abuse reports form
Time is now: 23rd September 2018 - 04:10:20