Welcome Guest ( Log In | Register )

> Releases Upload / Добавление релизов

Добавить релиз тут / Click here to add release
Рекомендованные обменники / Recommended file shares

> Hyperdontia - Nexus Of Teeth (2018), Old School Death Metal (D5)
post Sep 14 2018, 09:06:41
Post #1

Аннигилятор пивА
Group Icon
Group: V.I.P
Posts: 48,833
Releases: 14936
From: Koenigsberg - TILZIT
On Forums: 12 years 3 months
Thanks: 327229 time(s)
Russian Federation


(IMG:https://metalarea.org/images/audiocovers/2018_Sep/acov_tid310590_thumb.jpg)

*Artist: Hyperdontia
*Album: Nexus Of Teeth
*Year: 2018
*Genre: Old School Death Metal
*Country: Denmark (IMG:https://metalarea.org/forum/style_images/flags/Denmark.png)
*Format: mp3@СBR320kbps
*Size: 81MB

Tracklist:
1. Purging Through Flesh 03:19
2. Of Spire and Thorn 05:31
3. Teeth and Nails 03:40
4. Aura of Flies 04:12
5. Majesty 04:15
6. Euphoric Evisceration 03:01
7. Escaping the Mortal Embodiment 04:10
8. Existence Denied 05:56
******************************
Total playing time: 34:04





Extended info
Denmark/Turkey
Mathias Friborg - Guitars (Sulphurous, Taphos, ex-Realm of Chaos, Night Fever)
M.C. - Bass (2015-present) See also: Decaying Purity, Dreich, ex-Dionysian, ex-Burial Invocation, ex-Diabolizer, ex-Hellsodomy, ex-Massive Aggression, ex-Necrowretch
P.M.D.T. - Drums (2015-present) See also: Apparatus, Eldjudnir, Eternich, Phrenelith, Pink Absynth, Redivivus, Sulphurous, Witchburn, ex-Reinless, Märesvin, Niematotamto, ex-Steel Inferno, ex-Blöödy Psycho, ex-Neuma
M.G. - Guitars (2015-present)
See also: Decaying Purity, Diabolizer, Engulfed, ex-Burial Invocation
D.M. - Vocals (2015-present) See also: Phrenelith, Reefer, Undergang, Wormridden, ex-Trepanation, ex-Realm of Chaos, ex-Mold


Technical info
(IMG:https://metalarea.org/images/spectrogram/2018_Sep/e67c926443c1a6b8de6b27a450d19ee2.png)
Input File: 03 Teeth And Nails.mp3
Channels : 2
Sample Rate : 44100
Precision : 16-bit
Duration : 00:03:34.67 = 9467123 samples = 16100.5 CDDA sectors
File Size : 7.98M
Bit Rate : 297k
Sample Encoding: MPEG audio (layer I, II or III)
Comments :
Title=Teeth And Nails
Artist=Hyperdontia
Album=Nexus Of Teeth
Tracknumber=03/8
Year=2018
Genre=Death Metal
Discnumber=1/1



Register


Go to the top of the page
  Insert nick Quick quote
+Quote Post
 
Start new topic
Replies (1 - 7)
post Sep 14 2018, 16:10:11
Post #2

Семь Литров
*******
Group: Металариец
Posts: 773
Releases: 12
On Forums: 9 years 2 weeks
Thanks: 1571 time(s)
Russian Federation


Here is a proper rip without any sound issues. 320 kbps.
Register


Go to the top of the page
  Insert nick Quick quote
+Quote Post
post Sep 14 2018, 16:50:40
Post #3

Четыре Литра
****
Group: Металариец
Posts: 360
Releases: 5
On Forums: 10 years 1 month
Thanks: 329 time(s)
Germany


FLAC
Mega
Register


Go to the top of the page
  Insert nick Quick quote
+Quote Post
post Sep 15 2018, 16:38:08
Post #4

Маньяк
**********
Group: Металариец
Posts: 1,318
Releases: 0
From: Dnipro
On Forums: 10 years 2 months
Thanks: 360 time(s)
Ukraine


Махровая олдскульщина.


Thanks:
Go to the top of the page
  Insert nick Quick quote
+Quote Post
post Sep 15 2018, 21:30:02
Post #5

Сталин придёт за тобой...
***********
Group: Металариец
Posts: 1,622
Releases: 0
From: Беларусь, Минск
On Forums: 11 years 2 months
Thanks: 755 time(s)
Belarus


Отлично, то что надо.
Go to the top of the page
  Insert nick Quick quote
+Quote Post
post Sep 18 2018, 12:24:20
Post #6

Три Литра
***
Group: Завсегдатай
Posts: 257
Releases: 0
On Forums: 10 months 3 weeks
Thanks: 97 time(s)
Unknown


Просто бальзам на уши (IMG:style_emoticons/default/20.gif)
Датчане зарубили просто эталонный олдскульный дэзняк!
Go to the top of the page
  Insert nick Quick quote
+Quote Post
post Sep 19 2018, 18:01:04
Post #7

Литр
*
Group: Подсевший
Posts: 79
Releases: 0
From: Baltimore, MD
On Forums: 11 years 6 months
Thanks: 5 time(s)
United States


QUOTE(Ambercandle @ Sep 14 2018, 11:10:11) *
Here is a proper rip without any sound issues. 320 kbps.


Thanks man. That was crazy weird with the other link.
Go to the top of the page
  Insert nick Quick quote
+Quote Post
post Sep 19 2018, 18:54:46
Post #8

Восемь Литров
********
Group: Металариец
Posts: 881
Releases: 43
On Forums: 11 years 6 months
Thanks: 714 time(s)
Ukraine


ЦИТАТА(Incantatore @ Sep 18 2018, 14:24:20) *
Датчане зарубили просто эталонный олдскульный дэзняк!

Если-б это был олдскульный датский дезняк, а-ля ранние Конкра и Иллдиспосед было-бы ваще супер. А так, ни о чем. (IMG:style_emoticons/default/21.gif)
Go to the top of the page
  Insert nick Quick quote
+Quote Post

Reply to this topicStart new topic
1 User(s) are reading this topic (1 Guests and 0 Anonymous Users)
0 Members:

 



- Lo-Fi Version Support form
Copyrights and abuse reports form
Time is now: 21st September 2018 - 10:09:52