Welcome Guest ( Log In | Register )

> Releases Upload / Добавление релизов

Добавить релиз тут / Click here to add release
Рекомендованные обменники / Recommended file shares

> Severance - Mask Of Colour (2018), Progressive Death Metal (D)
post Sep 14 2018, 09:26:36
Post #1

Аннигилятор пивА
Group Icon
Group: V.I.P
Posts: 48,830
Releases: 14936
From: Koenigsberg - TILZIT
On Forums: 12 years 3 months
Thanks: 327225 time(s)
Russian Federation


(IMG:https://metalarea.org/images/audiocovers/2018_Sep/acov_tid310591_thumb.jpg)

*Artist: Severance
*Album: Mask Of Colour
*Year: 2018
*Genre: Progressive Death Metal
*Country: United States (IMG:https://metalarea.org/forum/style_images/flags/United%20States.png)
*Format: mp3@CBR320kbps
*Size: 91MB

Tracklist:
01. A Dying Sun
02. Shade of Red
03. Illusions
04. Living in Shadows
05. 5-08
06. The Hive
07. Waves
08. Resist the End
******************************
Total playing time: 37:17




Extended info
Mitchell Mahar-Simms - Vocals/Guitar
Nick Young - Guitar
Matthew Williams - Bass
Brent Mosher - Drums




Technical info
(IMG:https://metalarea.org/images/spectrogram/2018_Sep/4564db1bfd34f4ce312f3725eb1c33b1.png)
Input File: 03 Illusions.mp3
Channels : 2
Sample Rate : 44100
Precision : 16-bit
Duration : 00:05:22.63 = 14228115 samples = 24197.5 CDDA sectors
File Size : 13.7M
Bit Rate : 339k
Sample Encoding: MPEG audio (layer I, II or III)
Comments :
Title=Illusions
Artist=Severance
Album=Mask of Colour
Tracknumber=3/8
Year=2018
Discnumber=1/1



Register


Go to the top of the page
  Insert nick Quick quote
+Quote Post
 
Start new topic
Replies (1 - 1)
post Yesterday, 12:01:59
Post #2

hearer & reader
**************
Group: Металариец
Posts: 6,859
Releases: 86
From: Moscow
On Forums: 11 years 1 week
Thanks: 6614 time(s)
Russian Federation


Есть уважаемая команда из Техаса с таким именем.
Зачем соплякам из новоскотии называться также? (IMG:style_emoticons/default/21.gif)
Вопрос, конечно, риторический.
Go to the top of the page
  Insert nick Quick quote
+Quote Post

Reply to this topicStart new topic
1 User(s) are reading this topic (1 Guests and 0 Anonymous Users)
0 Members:

 



- Lo-Fi Version Support form
Copyrights and abuse reports form
Time is now: 21st September 2018 - 09:04:38