Welcome Guest ( Log In | Register )

 
Reply to this topicStart new topic
> Fairlight - Promo-Cd 2001 [demo] (2001), Melodic Death Metal
post Sep 14 2018, 09:48:39
Post #1

Подвал
**************
Group: Металариец
Posts: 12,412
Releases: 6990
From: Far East (Khabarovsk)
On Forums: 9 years 7 months
Thanks: 64482 time(s)
Russian Federation


(IMG:http://metalarea.org/images/audiocovers/2018_Sep/acov_tid310592_thumb.jpg)

*Artist: Fairlight
*Album: Promo-Cd 2001 [demo]
*Year: 2001
*Genre: Melodic Death Metal
*Country: France (IMG:http://metalarea.org/forum/style_images/flags/France.png)
*Format: mp3@CBR128kbps (IMG:http://metalarea.org/images/bit_low.gif)
*Size: 40MB

Tracklist:
1. I Am Alive 06:51
2. T.M.R.-IC. 05:28
3. Altitudes 05:45
4. Abducted 06:34
5. Hangar 18 (Megadeth Cover) 05:18
6. Deliverance (SUP cover) 05:50
7. Tyrpe 111 (Class'Rock version 97) 05:25
******************************
Total playing time: 41:11

Extended info
As written in the back of the CD :
"All tracks written by Fairlight except 5 and 6
Tracks 1 & 2 recorded and mixed during 1 day on computer Nov 2000.
Tracks 3 and 5 recorded and mixed in studio during 1 day each april 1999.
Track 4 recorded and mixed during during one day computer April 2000.
Track 6 recorded and mixed in studio during 2 days with French band Kalisia's members.
Track 7 recorded and mixed in studio in 2 days in August 1997."


Technical info
(IMG:http://metalarea.org/images/spectrogram/2018_Sep/a99cceec10f4bce1c3ae5bae6c04e4b3.png)
Input File: 01-I Am Alive.mp3
Channels : 2
Sample Rate : 44100
Precision : 16-bit
Duration : 00:06:51.62 = 18152354 samples = 30871.4 CDDA sectors
File Size : 6.59M
Bit Rate : 128k
Sample Encoding: MPEG audio (layer I, II or III)
Comments :
Title=I Am Alive
Artist=Fairlight (Fra)
Album=Promo-CD 2001
Tracknumber=01
Year=2001
Genre=Death Metal



Register


Go to the top of the page
  Insert nick Quick quote
+Quote Post

Reply to this topicStart new topic
1 User(s) are reading this topic (1 Guests and 0 Anonymous Users)
0 Members:

 



- Lo-Fi Version Support form
Copyrights and abuse reports form
Time is now: 21st September 2018 - 08:33:44