Welcome Guest ( Log In | Register )

> Releases Upload / Добавление релизов

Добавить релиз тут / Click here to add release
Рекомендованные обменники / Recommended file shares

> Pleymobil - Life Dimension Of Death (1995), Death Metal With Doom Influences
post Sep 14 2018, 09:59:28
Post #1

Подвал
**************
Group: Металариец
Posts: 12,431
Releases: 6991
From: Far East (Khabarovsk)
On Forums: 9 years 7 months
Thanks: 64537 time(s)
Russian Federation


(IMG:http://metalarea.org/images/audiocovers/2018_Sep/acov_tid310593_thumb.jpg)

*Artist: Pleymobil
*Album: Life Dimension Of Death
*Year: 1995
*Genre: Death Metal With Doom Influences
*Country: Italy (IMG:http://metalarea.org/forum/style_images/flags/Italy.png)
*Format: mp3@CBR320kbps
*Size: 88MB

Tracklist:
1. Intro 01:27
2. Pleymobil 06:12
3. The End Of Battle 05:26
4. Spirit Of The Nordic Forest 07:58
5. Alone 08:23
6. Sirens 02:23
7. Life Dimension Of Death 04:06
******************************
Total playing time: 35:55

Extended info
Recorded in 1995 at Suono Vivo Studios, Bergamo, Italy.


Technical info
(IMG:http://metalarea.org/images/spectrogram/2018_Sep/ccca2b4c63383cba08be2e868aec1e8f.png)
Input File: 02-Pleymobil.mp3
Channels : 2
Sample Rate : 44100
Precision : 16-bit
Duration : 00:06:12.13 = 16411109 samples = 27910 CDDA sectors
File Size : 14.9M
Bit Rate : 320k
Sample Encoding: MPEG audio (layer I, II or III)
Comments :
Title=Pleymobil
Artist=Pleymobil
Album=Life Dimension Of Death
Tracknumber=2/7
Year=1995
Genre=Death Metal



Register


Go to the top of the page
  Insert nick Quick quote
+Quote Post
 
Start new topic
Replies (1 - 2)
post Sep 14 2018, 21:27:10
Post #2

Group: Подсевший
Posts: 30
Releases: 11
On Forums: 1 month 2 weeks
Thanks: 99 time(s)
Sweden


Название такое суровое.


Thanks:
(1) Wail,
Go to the top of the page
  Insert nick Quick quote
+Quote Post
post Sep 20 2018, 11:55:09
Post #3

hearer & reader
**************
Group: Металариец
Posts: 6,867
Releases: 86
From: Moscow
On Forums: 11 years 2 weeks
Thanks: 6618 time(s)
Russian Federation


В лом превью искать?
Go to the top of the page
  Insert nick Quick quote
+Quote Post

Reply to this topicStart new topic
2 User(s) are reading this topic (2 Guests and 0 Anonymous Users)
0 Members:

 



- Lo-Fi Version Support form
Copyrights and abuse reports form
Time is now: 23rd September 2018 - 03:12:20