Welcome Guest ( Log In | Register )

> Releases Upload / Добавление релизов

Добавить релиз тут / Click here to add release
Рекомендованные обменники / Recommended file shares

 
Reply to this topicStart new topic
> Terrible Sickness - First Rape Still Sexy (2013), Death/Thrash Metal
post Sep 14 2018, 10:40:27
Post #1

Аннигилятор пивА
Group Icon
Group: V.I.P
Posts: 48,828
Releases: 14936
From: Koenigsberg - TILZIT
On Forums: 12 years 3 months
Thanks: 327223 time(s)
Russian Federation


(IMG:https://metalarea.org/images/audiocovers/2018_Sep/acov_tid310594_thumb.jpg)

*Artist: Terrible Sickness
*Album: First Rape Still Sexy
*Year: 2013
*Genre: Death/Thrash Metal
*Country: Germany (IMG:https://metalarea.org/forum/style_images/flags/Germany.png)
*Format: mp3@CBR320kbps
*Size: 63MB

Tracklist:
1. Spread the Sickness (Intro) 02:17
2. I Spit on Your Grave 04:31
3. Nothing Left to Devour 03:36
4. Sodomizing Shred Fest 03:39
5. Wiener Snot 02:20
6. Abattoir of Pleasure 02:43
7. Mortuary 04:01
8. Terrible Sickness 02:46
9. Unaccountable Murders 03:24
******************************
Total playing time: 29:17




Extended info
Hendrik (R.I.P. 2016) - Bass
Peter - Drums
Karsten - Guitars
Herr Asmodeus - Guitars
Florian - Vocals



Technical info
(IMG:https://metalarea.org/images/spectrogram/2018_Sep/e20fe6edd82b213672e76bb86e84c8e0.png)
Input File: 02-terrible_sickness-i_spit_on_your_grave-7e352e01.mp3
Channels : 2
Sample Rate : 44100
Precision : 16-bit
Duration : 00:04:31.22 = 11960846 samples = 20341.6 CDDA sectors
File Size : 11.0M
Bit Rate : 324k
Sample Encoding: MPEG audio (layer I, II or III)
Comments :
Title=I Spit on Your Grave
Artist=Terrible Sickness
Album=First Rape, Still Sexy
Tracknumber=2/9
Year=2018
Genre=Death Metal



Register


Go to the top of the page
  Insert nick Quick quote
+Quote Post

Reply to this topicStart new topic
1 User(s) are reading this topic (1 Guests and 0 Anonymous Users)
0 Members:

 



- Lo-Fi Version Support form
Copyrights and abuse reports form
Time is now: 21st September 2018 - 08:34:23