Welcome Guest ( Log In | Register )

 
Reply to this topicStart new topic
> Gallow - For Those Left Behind (1997), Death Metal
post Sep 14 2018, 10:53:44
Post #1

Подвал
**************
Group: Металариец
Posts: 12,412
Releases: 6990
From: Far East (Khabarovsk)
On Forums: 9 years 7 months
Thanks: 64482 time(s)
Russian Federation


(IMG:http://metalarea.org/images/audiocovers/2018_Sep/acov_tid310595_thumb.jpg)

*Artist: Gallow
*Album: For Those Left Behind
*Year: 1997
*Genre: Death Metal
*Country: Belgium (IMG:http://metalarea.org/forum/style_images/flags/Belgium.png)
*Format: mp3@CBR192kbps
*Size: 42MB

Tracklist:
1. Intro: Ordo Virtutum 05:33
2. Embraced By Hatred 03:31
3. The Sarcastic Humiliation Of Christ 02:40
4. My Greed For Eternal Sin 03:16
5. Only The Filth Remains 03:31
6. Blind Leading The Blind 03:58
7. How To Sell Your Soul 02:56
8. Trail Of The Zodiac 03:17
9. Kiss Of The Demon-Whore 02:06
******************************
Total playing time: 30:48

Extended info
Recorded and Mastered at Midas Studios, Lokeren.


Technical info
(IMG:http://metalarea.org/images/spectrogram/2018_Sep/bfa74cb8749b2476f9c474cf3ff04c76.png)
Input File: 02-Embraced By Hatred.mp3
Channels : 2
Sample Rate : 44100
Precision : 16-bit
Duration : 00:03:32.49 = 9370853 samples = 15936.8 CDDA sectors
File Size : 5.10M
Bit Rate : 192k
Sample Encoding: MPEG audio (layer I, II or III)
Comments :
Title=Embraced By Hatred
Artist=Gallow (Belg)
Album=For Those Left Behind
Tracknumber=02
Year=1997
Genre=Death Metal



Register


Go to the top of the page
  Insert nick Quick quote
+Quote Post

Reply to this topicStart new topic
1 User(s) are reading this topic (1 Guests and 0 Anonymous Users)
0 Members:

 



- Lo-Fi Version Support form
Copyrights and abuse reports form
Time is now: 21st September 2018 - 09:35:59