Welcome Guest ( Log In | Register )

> Retturn - Retturn (1995), Thrash/Groove Metal
post Sep 14 2018, 11:06:36
Post #1

Подвал
**************
Group: Металариец
Posts: 12,690
Releases: 7116
From: Far East (Khabarovsk)
On Forums: 9 years 9 months
Thanks: 66059 time(s)
Russian Federation


(IMG:http://metalarea.org/images/audiocovers/2018_Sep/acov_tid310596_thumb.JPG)

*Artist: Retturn
*Album: Retturn
*Year: 1995
*Genre: Thrash/Groove Metal
*Country: Brazil (IMG:http://metalarea.org/forum/style_images/flags/Brazil.png)
*Format: mp3@CBR192kbps
*Size: 46MB

Tracklist:
1. Regret 03:41
2. Honour's Murder 03:48
3. Insane 03:05
4. 1195 (Onzenovecinco) 03:16
5. Breathing 03:47
6. M.C.T.G. 04:42
7. Lost 01:46
8. Socanupau!!! 03:18
9. Truth In Your Mind 02:41
10. Pride / Destruicao 03:42
******************************
Total playing time: 33:46

Extended info
They're not on metallum archives yet.


Technical info
(IMG:http://metalarea.org/images/spectrogram/2018_Sep/eb7d4d7904d111f087f381f70f72fcf1.png)
Input File: 01-Regret.mp3
Channels : 2
Sample Rate : 44100
Precision : 16-bit
Duration : 00:03:41.09 = 9749893 samples = 16581.5 CDDA sectors
File Size : 5.31M
Bit Rate : 192k
Sample Encoding: MPEG audio (layer I, II or III)
Comments :
Title=Regret
Artist=Retturn (Bra)
Album=Retturn
Tracknumber=01
Year=1995
Genre=Thrash Metal



Register


Go to the top of the page
  Insert nick Quick quote
+Quote Post
 
Start new topic
Replies (1 - 2)
post Sep 16 2018, 08:34:00
Post #2

South Of Heaven /адепт ВУДУ
**************
Group: Металариец
Posts: 13,162
Releases: 7
From: Санкт-Петербург
On Forums: 8 years 7 months
Thanks: 4800 time(s)
Russian Federation


Go to the top of the page
  Insert nick Quick quote
+Quote Post
post Nov 10 2018, 16:38:40
Post #3

People = Shit
**************
Group: Металариец
Posts: 7,726
Releases: 410
From: Беларусь, Минск
On Forums: 6 years 2 months
Thanks: 6728 time(s)
Belarus


сам же хотел это дерьмо залить. "за решёткой" сидел (IMG:style_emoticons/default/1488.gif)
Go to the top of the page
  Insert nick Quick quote
+Quote Post

Reply to this topicStart new topic
1 User(s) are reading this topic (1 Guests and 0 Anonymous Users)
0 Members:

 



- Lo-Fi Version Support form
Copyrights and abuse reports form
Time is now: 14th November 2018 - 18:15:23