Welcome Guest ( Log In | Register )

> Beastcraft - Nocturnal Reverence [ep] (2017), Black Metal
post Sep 14 2018, 11:19:20
Post #1

Шесть Литров
******
Group: Металариец
Posts: 569
Releases: 71
On Forums: 10 years 7 months
Thanks: 1568 time(s)
Portugal


(IMG:http://metalarea.org/images/audiocovers/2018_Sep/acov_tid310599_thumb.jpg)

*Artist: Beastcraft
*Album: Nocturnal Reverence [ep]
*Year: 2017
*Genre: Black Metal
*Country: Norway (IMG:http://metalarea.org/forum/style_images/flags/Norway.png)
*Format: mp3@CBR192kbps
*Size: 13MB

Tracklist:
1. ...In Thy Glory 02:22
2. Unholy Black Metal (Darkthrone cover) 03:27
3. Satanic Blood (Von cover) 02:19
******************************
Total playing time: 8:08



Extended info
Beastcraft tribute to Quorthon, Darkthrone and Von.

CORRECT BITRATE - 192KBPS!!!


Technical info
(IMG:http://metalarea.org/images/spectrogram/2018_Sep/7912252376d5140ec9fbaf95375f2061.png)
Input File: Beastcraft - 01 - ...In Thy Glory.mp3
Channels : 2
Sample Rate : 44100
Precision : 16-bit
Duration : 00:02:22.91 = 6302243 samples = 10718.1 CDDA sectors
File Size : 3.96M
Bit Rate : 222k
Sample Encoding: MPEG audio (layer I, II or III)
Comments :
Title=...In Thy Glory
Artist=Beastcraft
Album=Nocturnal Reverence
Tracknumber=1
Year=2017
Genre=Black Metal



Register


Go to the top of the page
  Insert nick Quick quote
+Quote Post
 
Start new topic
Replies (1 - 1)
post Mar 3 2019, 07:11:05
Post #2


Group Icon
Group: S-moderation team
Posts: 9,946
Releases: 1432
From: Zagreb
On Forums: 8 years 1 month
Thanks: 44001 time(s)
Croatia


Has better quality rip finally leaked anywhere? Anyone has it?

Please share V0/320/flac (IMG:style_emoticons/default/pray.gif)
Go to the top of the page
  Insert nick Quick quote
+Quote Post

Reply to this topicStart new topic
1 User(s) are reading this topic (1 Guests and 0 Anonymous Users)
0 Members:

 



- Lo-Fi Version Support form
Copyrights and abuse reports form
Time is now: 25th April 2019 - 05:49:37