Welcome Guest ( Log In | Register )

 
Reply to this topicStart new topic
> Beastcraft - Nocturnal Reverence [ep] (2017), Black Metal
post Sep 14 2018, 11:19:20
Post #1

Шесть Литров
******
Group: Металариец
Posts: 555
Releases: 64
On Forums: 10 years 2 months
Thanks: 1420 time(s)
Portugal


(IMG:http://metalarea.org/images/audiocovers/2018_Sep/acov_tid310599_thumb.jpg)

*Artist: Beastcraft
*Album: Nocturnal Reverence [ep]
*Year: 2017
*Genre: Black Metal
*Country: Norway (IMG:http://metalarea.org/forum/style_images/flags/Norway.png)
*Format: mp3@CBR192kbps
*Size: 13MB

Tracklist:
1. ...In Thy Glory 02:22
2. Unholy Black Metal (Darkthrone cover) 03:27
3. Satanic Blood (Von cover) 02:19
******************************
Total playing time: 8:08



Extended info
Beastcraft tribute to Quorthon, Darkthrone and Von.

CORRECT BITRATE - 192KBPS!!!


Technical info
(IMG:http://metalarea.org/images/spectrogram/2018_Sep/7912252376d5140ec9fbaf95375f2061.png)
Input File: Beastcraft - 01 - ...In Thy Glory.mp3
Channels : 2
Sample Rate : 44100
Precision : 16-bit
Duration : 00:02:22.91 = 6302243 samples = 10718.1 CDDA sectors
File Size : 3.96M
Bit Rate : 222k
Sample Encoding: MPEG audio (layer I, II or III)
Comments :
Title=...In Thy Glory
Artist=Beastcraft
Album=Nocturnal Reverence
Tracknumber=1
Year=2017
Genre=Black Metal



Register


Go to the top of the page
  Insert nick Quick quote
+Quote Post

Reply to this topicStart new topic
1 User(s) are reading this topic (1 Guests and 0 Anonymous Users)
0 Members:

 



- Lo-Fi Version Support form
Copyrights and abuse reports form
Time is now: 14th November 2018 - 19:22:21