Welcome Guest ( Log In | Register )

> Releases Upload / Добавление релизов

Добавить релиз тут / Click here to add release
Рекомендованные обменники / Recommended file shares

> Street Child - Street Child [ep] (1989), Heavy/Power Metal
post Sep 14 2018, 11:51:30
Post #1

Литр
*
Group: Подсевший
Posts: 63
Releases: 41
On Forums: 1 week 3 days
Thanks: 225 time(s)
Russian Federation


(IMG:http://metalarea.org/images/audiocovers/2018_Sep/acov_tid310600_thumb.gif)

*Artist: Street Child
*Album: Street Child [ep]
*Year: 1989
*Genre: Heavy/Power Metal
*Country: United States (IMG:http://metalarea.org/forum/style_images/flags/United%20States.png)
*Format: mp3@CBR320kbps
*Size: 64MB

Tracklist:
1. Temple of Set 04:28
2. Street Child 06:09
3. Erotic Insomnia 05:03
4. Building a Wall 04:59
******************************
Total playing time: 20:39

Technical info
(IMG:http://metalarea.org/images/spectrogram/2018_Sep/af6639a83fb54e364cf5edda8bd7d67e.png)
Input File: 01. Temple Of Set.mp3
Channels : 2
Sample Rate : 48000
Precision : 16-bit
Duration : 00:04:27.86 = 12857472 samples ~ 20089.8 CDDA sectors
File Size : 14.4M
Bit Rate : 429k
Sample Encoding: MPEG audio (layer I, II or III)
Comments :
Title=Temple Of Set
Artist=Street Child
Album=Street Child
Tracknumber=1
Year=1989
Genre=Heavy Metal



Register


Go to the top of the page
  Insert nick Quick quote
+Quote Post
 
Start new topic
Replies (1 - 1)
post Sep 15 2018, 06:33:53
Post #2

Наливай!
**************
Group: Металариец
Posts: 5,098
Releases: 27
From: Москва-Бибирево
On Forums: 10 years 6 months
Thanks: 2397 time(s)
Russian Federation




Thanks:
Go to the top of the page
  Insert nick Quick quote
+Quote Post

Reply to this topicStart new topic
2 User(s) are reading this topic (2 Guests and 0 Anonymous Users)
0 Members:

 



- Lo-Fi Version Support form
Copyrights and abuse reports form
Time is now: 23rd September 2018 - 03:12:18