Welcome Guest ( Log In | Register )

> Releases Upload / Добавление релизов

Добавить релиз тут / Click here to add release
Рекомендованные обменники / Recommended file shares

 
Reply to this topicStart new topic
> Various Artists - Midnight Offerings Vol. 1 (1992), Death Metal (D2037)
post Sep 14 2018, 11:59:42
Post #1

Подвал
**************
Group: Металариец
Posts: 12,431
Releases: 6991
From: Far East (Khabarovsk)
On Forums: 9 years 7 months
Thanks: 64537 time(s)
Russian Federation


(IMG:http://metalarea.org/images/audiocovers/2018_Sep/acov_tid310601_thumb.JPG)

*Artist: Various Artists
*Album: Midnight Offerings Vol. 1
*Year: 1992
*Genre: Death Metal
*Country: United States (IMG:http://metalarea.org/forum/style_images/flags/United%20States.png)
*Format: mp3@CBR320kbps
*Size: 141MB

Tracklist:
1. Morbius - Encoffination 04:29
2. Eldritch Horror - Remission Of Desperation 04:39
3. Pyrexia - Demigod 04:52
4. Human Remains - Spoiling Of Beauty 03:15
5. Corpse Grinder - Can't Wash Off The Blood 02:21
6. Vomica - Pugilistic Attitude 04:40
7. Mothra - Horrific Imagery 03:30
8. Corpus Rottus - Smell / Dark Wind Of The Netherworld 02:48
9. Exterminance - Premature Ruination 04:13
10. Abominog - Hypnotic Misery 03:36
11. Doomstone - Tales Of Voodoo 02:10
12. Embrionic Death - Sculpting Decay 04:04
13. Arghoslent - Cathari 04:16
14. Bereaved - Ostentatious Demise 03:08
15. Biovore - Eternal Solitude 02:21
16. Damonacy - Corpulant Carrion 05:12
17. Sadistic Torment - Carnivorous Paralysis 02:21
18. Incarnis - Blood Prayer 02:41
19. Blacklord - Satanic Cannibals 03:50
20. Toxic Armpit - Funeral From Earth 03:10
******************************
Total playing time: 1:11:36

Extended info
Compiled by Kingsley "King" Fowley ov Deceased.
All bands were from U.S.A.
Archive includes scans.


Technical info
(IMG:http://metalarea.org/images/spectrogram/2018_Sep/fe9d0973208842458b3ac6a07e0681ed.png)
Input File: 01-MORBIUS - Encoffination.mp3
Channels : 2
Sample Rate : 44100
Precision : 16-bit
Duration : 00:04:29.43 = 11882039 samples = 20207.5 CDDA sectors
File Size : 10.8M
Bit Rate : 320k
Sample Encoding: MPEG audio (layer I, II or III)
Comments :
Title=Encoffination
Artist=MORBIUS
Album=Midnight Offerings vol. 1
Tracknumber=01
Year=1992
Genre=Death Metal



Register


Go to the top of the page
  Insert nick Quick quote
+Quote Post

Reply to this topicStart new topic
2 User(s) are reading this topic (2 Guests and 0 Anonymous Users)
0 Members:

 



- Lo-Fi Version Support form
Copyrights and abuse reports form
Time is now: 23rd September 2018 - 04:05:46