Welcome Guest ( Log In | Register )

> И неформату есть предел.

Рэп/хип-хоп/шансон/поп удаляются. Для них есть свои порталы.

> Crippled Black Phoenix - Great Escape (2018), Atmospheric/Psychedelic Post-Rock (D12)
post Sep 14 2018, 12:05:25
Post #1

Аннигилятор пивА
Group Icon
Group: V.I.P
Posts: 48,881
Releases: 14964
From: Koenigsberg - TILZIT
On Forums: 12 years 3 months
Thanks: 327597 time(s)
Russian Federation


(IMG:https://metalarea.org/images/audiocovers/2018_Sep/acov_tid310602_thumb.jpg)

*Artist: Crippled Black Phoenix
*Album: Great Escape
*Year: 2018
*Genre: Atmospheric/Psychedelic Post-Rock
*Country: United Kingdom (IMG:https://metalarea.org/forum/style_images/flags/United%20Kingdom.png)
*Format: mp3@CBR320kbps
*Size: 177MB

Tracklist:
01. You Brought It Upon Yourselves
02. To You I Give
03. Uncivil War (Pt. I)
04. Madman
05. Times, They Are A Raging
06. Rain Black, Reign Heavy
07. Slow Motion Breakdown
08. Nebulas
09. Las Diabolicas
10. Great Escape (Pt. I)
11. Great Escape (Pt. II)
******************************
Total playing time: 1:01:13




Extended info
Justin Greaves: Guitar, Backing Vocals, Bass (Iron Monkey, Electric Wizard)
Daniel Anghede: Guitar, Vocals
Mark Furnevall: Synthesizer, Keyboard, Hammond Organ, Backing Vocals
Helen Stanley: Piano, Keyboard, Trumpet, Vocals
Tom Greenway: Bass
Jonas Stalhammar: Guitar, Backing Vocals
Belinda Kordic: Vocals
Ben Wilsker: Drums





Technical info
(IMG:https://metalarea.org/images/spectrogram/2018_Sep/dd7d4d3a80ca4b9fd89882e3f8d48550.png)
Input File: 04 Madman.mp3
Channels : 2
Sample Rate : 44100
Precision : 16-bit
Duration : 00:04:50.94 = 12830498 samples = 21820.6 CDDA sectors
File Size : 12.2M
Bit Rate : 334k
Sample Encoding: MPEG audio (layer I, II or III)
Comments :
Title=Madman
Artist=Crippled Black Phoenix
Album=Great Escape
Tracknumber=4/11
Year=2018
Genre=Progressive Rock
Discnumber=1/1



Register


Go to the top of the page
  Insert nick Quick quote
+Quote Post
 
Start new topic
Replies (1 - 8)
post Sep 14 2018, 19:53:36
Post #2

Аннигилятор пивА
Group Icon
Group: V.I.P
Posts: 48,881
Releases: 14964
From: Koenigsberg - TILZIT
On Forums: 12 years 3 months
Thanks: 327597 time(s)
Russian Federation


MIRROR
Register


Thanks:
Go to the top of the page
  Insert nick Quick quote
+Quote Post
post Sep 18 2018, 08:07:27
Post #3

Пять Литров
*****
Group: Металариец
Posts: 496
Releases: 5
On Forums: 8 years 8 months
Thanks: 293 time(s)
Russian Federation


Совсем исписался Гривз (IMG:style_emoticons/default/smile2.gif)
Go to the top of the page
  Insert nick Quick quote
+Quote Post
post Sep 18 2018, 10:20:55
Post #4

Ёлд ХеллоВяйне
Group Icon
Group: V.I.P
Posts: 26,010
Releases: 130
From: Питер
On Forums: 11 years 10 months
Thanks: 14374 time(s)
Russian Federation


я щас закончу вообще всё (IMG:style_emoticons/default/20.gif)
Go to the top of the page
  Insert nick Quick quote
+Quote Post
post Sep 18 2018, 12:10:39
Post #5

Ёлд ХеллоВяйне
Group Icon
Group: V.I.P
Posts: 26,010
Releases: 130
From: Питер
On Forums: 11 years 10 months
Thanks: 14374 time(s)
Russian Federation


QUOTE(POMAHOB @ 18th September 2018 - 10:07:27) *
Совсем исписался Гривз


Воля ваша, конечно, но по мне так альбом лучший аж со времён 200 Tons of Bad Luck.


Thanks:
Go to the top of the page
  Insert nick Quick quote
+Quote Post
post Sep 18 2018, 13:37:10
Post #6

Шесть Литров
******
Group: Металариец
Posts: 657
Releases: 1
From: Россия, Санкт-Петербург
On Forums: 10 years 4 months
Thanks: 79 time(s)
Russian Federation


Версия с бонусами еще не появлялась?
Go to the top of the page
  Insert nick Quick quote
+Quote Post
post Sep 18 2018, 23:55:47
Post #7

Аннигилятор пивА
Group Icon
Group: V.I.P
Posts: 48,881
Releases: 14964
From: Koenigsberg - TILZIT
On Forums: 12 years 3 months
Thanks: 327597 time(s)
Russian Federation


ЦИТАТА(J0k3r @ Sep 18 2018, 12:37:10) *
Версия с бонусами еще не появлялась?


CD 02:
12. Hunok Csataja (Bonus) 07:41
13. An Uncivil War, Pt. I & II (Bonus) 08:36


320/38MB
Register

Register


Go to the top of the page
  Insert nick Quick quote
+Quote Post
post Sep 19 2018, 11:16:10
Post #8

Шесть Литров
******
Group: Металариец
Posts: 657
Releases: 1
From: Россия, Санкт-Петербург
On Forums: 10 years 4 months
Thanks: 79 time(s)
Russian Federation


ЦИТАТА(aesteticvice @ 19th September 2018 - 01:55:47) *
CD 02:
12. Hunok Csataja (Bonus) 07:41
13. An Uncivil War, Pt. I & II (Bonus) 08:36

Класс. Большое спасибо тебе.
Альбом - лучший со времен I, Viglante
Go to the top of the page
  Insert nick Quick quote
+Quote Post
post Sep 20 2018, 22:29:38
Post #9

Шесть Литров
******
Group: Металариец
Posts: 690
Releases: 0
From: Харьков
On Forums: 8 years 11 months
Thanks: 218 time(s)
Ukraine


Честно говоря, предыдущие пару альбомов я совсем не помню (а другие не слышал), но это очень хороший материал. Придется дискографию тянуть)
Go to the top of the page
  Insert nick Quick quote
+Quote Post

Reply to this topicStart new topic
2 User(s) are reading this topic (2 Guests and 0 Anonymous Users)
0 Members:

 



- Lo-Fi Version Support form
Copyrights and abuse reports form
Time is now: 23rd September 2018 - 03:12:43