Welcome Guest ( Log In | Register )

> Releases Upload / Добавление релизов

Добавить релиз тут / Click here to add release
Рекомендованные обменники / Recommended file shares

 
Reply to this topicStart new topic
> Paradoxx - Plan Of Attak [ep] (1985), Heavy Metal
post Sep 14 2018, 12:06:22
Post #1

Литр
*
Group: Подсевший
Posts: 50
Releases: 36
On Forums: 1 week 2 days
Thanks: 204 time(s)
Russian Federation


(IMG:http://metalarea.org/images/audiocovers/2018_Sep/acov_tid310603_thumb.jpg)

*Artist: Paradoxx
*Album: Plan Of Attak [ep]
*Year: 1985
*Genre: Heavy Metal
*Country: United States (IMG:http://metalarea.org/forum/style_images/flags/United%20States.png)
*Format: mp3@CBR320kbps
*Size: 51MB

Tracklist:
1. Don't Let Go 04:28
2. Unleashed 03:49
3. Live Free or Die 03:08
4. Black Siren 04:45
5. Plan Of Attak 03:52
6. Night Ryder 04:36
******************************
Total playing time: 24:38

Technical info
(IMG:http://metalarea.org/images/spectrogram/2018_Sep/95db03e14659417133db06b58cd1b1d1.png)
Input File: 05 Plan Of Attak [Bonus].mp3
Channels : 2
Sample Rate : 44100
Precision : 16-bit
Duration : 00:03:52.39 = 10248311 samples = 17429.1 CDDA sectors
File Size : 9.33M
Bit Rate : 321k
Sample Encoding: MPEG audio (layer I, II or III)
Comments :
Title=Plan Of Attak
Artist=Paradoxx
Album=Plan of Attak
Tracknumber=5
Year=1985
Genre=Heavy Metal



Register


Go to the top of the page
  Insert nick Quick quote
+Quote Post

Reply to this topicStart new topic
1 User(s) are reading this topic (1 Guests and 0 Anonymous Users)
0 Members:

 



- Lo-Fi Version Support form
Copyrights and abuse reports form
Time is now: 21st September 2018 - 08:34:43