Welcome Guest ( Log In | Register )

 
Reply to this topicStart new topic
> Metal Merchant - Metal Merchant [ep] (1986), Heavy Metal
post Sep 14 2018, 12:10:18
Post #1

Два Литра
**
Group: Завсегдатай
Posts: 112
Releases: 71
On Forums: 2 months 2 days
Thanks: 517 time(s)
Russian Federation


(IMG:http://metalarea.org/images/audiocovers/2018_Sep/acov_tid310604_thumb.png)

*Artist: Metal Merchant
*Album: Metal Merchant [ep]
*Year: 1986
*Genre: Heavy Metal
*Country: United States (IMG:http://metalarea.org/forum/style_images/flags/United%20States.png)
*Format: mp3@CBR320kbps
*Size: 38MB

Tracklist:
1. What Does It Feel Like 03:06
2. I Don't Care 03:03
3. Electric Angel 03:51
4. Sacrifice 04:42
******************************
Total playing time: 14:42

Technical info
(IMG:http://metalarea.org/images/spectrogram/2018_Sep/e339ea955100ea74c9549e9fd8df9bff.png)
Input File: 4.Sacrifice.mp3
Channels : 2
Sample Rate : 44100
Precision : 16-bit
Duration : 00:04:42.32 = 12450312 samples = 21174 CDDA sectors
File Size : 11.9M
Bit Rate : 338k
Sample Encoding: MPEG audio (layer I, II or III)
Comments :
Title=Sacrifice
Artist=Metal Merchant
Album=Metal Merchant
Tracknumber=4
Year=1986
Genre=Heavy Metal



Register


Go to the top of the page
  Insert nick Quick quote
+Quote Post

Reply to this topicStart new topic
1 User(s) are reading this topic (1 Guests and 0 Anonymous Users)
0 Members:

 



- Lo-Fi Version Support form
Copyrights and abuse reports form
Time is now: 14th November 2018 - 19:10:56