Welcome Guest ( Log In | Register )

> Releases Upload / Добавление релизов

Добавить релиз тут / Click here to add release
Рекомендованные обменники / Recommended file shares

 
Reply to this topicStart new topic
> Spacemetal - Shroud (2018), Stoner/Heavy Metal
post Sep 14 2018, 13:04:43
Post #1

Аннигилятор пивА
Group Icon
Group: V.I.P
Posts: 48,833
Releases: 14936
From: Koenigsberg - TILZIT
On Forums: 12 years 3 months
Thanks: 327229 time(s)
Russian Federation


(IMG:https://metalarea.org/images/audiocovers/2018_Sep/acov_tid310606_thumb.jpg)

*Artist: Spacemetal
*Album: Shroud
*Year: 2018
*Genre: Stoner/Heavy Metal
*Country: United States (IMG:https://metalarea.org/forum/style_images/flags/United%20States.png)
*Format: mp3@CBR320kbps
*Size: 107MB

Tracklist:
01. Shroud
02. Birthright Baby
03. Forest Of Faith
04. The Wheel
05. Unifier
06. Cities Of The Dead
07. New Blood
08. Deer God
******************************
Total playing time: 47:06




Extended info
Travis Acosta - Vocals
John Maracich - Guitars, Vocals
Chris Trentecosta - Guitars
Rob Norton - Bass
Chris Kain - Drums


Technical info
(IMG:https://metalarea.org/images/spectrogram/2018_Sep/7c85326d49208f36a7ae29bb2bb73138.png)
Input File: 02. Birthright Baby.mp3
Channels : 2
Sample Rate : 44100
Precision : 16-bit
Duration : 00:05:01.34 = 13289182 samples = 22600.6 CDDA sectors
File Size : 12.1M
Bit Rate : 322k
Sample Encoding: MPEG audio (layer I, II or III)
Comments :
Title=Birthright Baby
Artist=SpaceMetal
Album=Shroud
Tracknumber=2
Year=2018
Genre=Stoner Metal



Register


Go to the top of the page
  Insert nick Quick quote
+Quote Post

Reply to this topicStart new topic
1 User(s) are reading this topic (1 Guests and 0 Anonymous Users)
0 Members:

 



- Lo-Fi Version Support form
Copyrights and abuse reports form
Time is now: 21st September 2018 - 10:04:31