Welcome Guest ( Log In | Register )

> Psychotomy - Aphotik (2018), Death Metal
post Sep 14 2018, 21:54:08
Post #1

Правь статус, ####!111
**************
Group: Металариец
Posts: 18,179
Releases: 12292
From: Г.Харьков
On Forums: 7 years 3 months
Thanks: 207296 time(s)
Unknown


(IMG:https://metalarea.org/images/audiocovers/2018_Sep/acov_tid310624_thumb.jpg)

*Artist: Psychotomy
*Album: Aphotik
*Year: 2018
*Genre: Death Metal
*Country: Italy (IMG:https://metalarea.org/forum/style_images/flags/Italy.png)
*Format: mp3@CBR256kbps
*Size: 78MB

Tracklist:
1. Towards the Pillars of Chaos/Kenosis 04:51
2. Evidence of Tyranny 04:29
3. Witness of Void 04:34
4. Blasphemous Inception 03:55
5. Blood Red Kvlt 03:53
6. Ascent Through Malevolence 05:36
7. Conjuring the Abyss 03:24
8. Beyond the Eternal Omega 04:03
9. Lethe 06:50
******************************
Total playing time: 41:35




Extended info
Nene Guitars (2010-present)
See also: ex-Death Legion, Elil, ex-An Ocean Between Us
Lory Vocals, Guitars (2010-present)
See also: Stench of Profit, ex-Deus Irae, Gore Suicide, The Gang Bang Theory
Matt Bass (2015-2016), Drums (2016-present)
See also: Algol, Dead Tongue, ex-Heresiae, ex-Trifixion, ex-Funereal Dusk
Marco S. Bass (2017-present)
See also: Chronic Hate, Oath


Technical info
(IMG:https://metalarea.org/images/spectrogram/2018_Sep/e605eb77b6297024fb096bbdc56bd19d.png)
Input File: 03 Witness Of Void.mp3
Channels : 2
Sample Rate : 44100
Precision : 16-bit
Duration : 00:04:34.26 = 12094998 samples = 20569.7 CDDA sectors
File Size : 8.82M
Bit Rate : 257k
Sample Encoding: MPEG audio (layer I, II or III)
Comments :
Title=Witness Of Void
Artist=Psychotomy
Album=Aphotik
Tracknumber=3/9
Year=2018
Genre=Death Metal
Discnumber=1/1



Register


Go to the top of the page
  Insert nick Quick quote
+Quote Post
 
Start new topic
Replies (1 - 6)
post Sep 15 2018, 14:37:11
Post #2

Правь статус, ####!111
**************
Group: Металариец
Posts: 18,179
Releases: 12292
From: Г.Харьков
On Forums: 7 years 3 months
Thanks: 207296 time(s)
Unknown


Cloud Mail 256
Register


Go to the top of the page
  Insert nick Quick quote
+Quote Post
post Sep 15 2018, 22:12:39
Post #3

Crush The Enemies
**************
Group: Металариец
Posts: 4,217
Releases: 0
From: Moscow
On Forums: 9 years 11 months
Thanks: 2379 time(s)
Russian Federation



Помню про сей коЛЛектив ещё по их первому полноформатнику,не потому что чем-то удивили,крен у них под Immolation конкретный идёт по всем плоскостям,а потому,что ну очень слабо верится,что на вокале так БАБЁНКА сурово отжигает! (IMG:style_emoticons/default/dwarf-1.gif)

P.S И,кстати,если абстрагироваться от схожести с вышеупомянутой мною ИМЕНИТОЙ бандой - материал очень НЕПЛОХ! (IMG:style_emoticons/default/9.gif)


Go to the top of the page
  Insert nick Quick quote
+Quote Post
post Sep 16 2018, 10:56:14
Post #4

Сталин придёт за тобой...
***********
Group: Металариец
Posts: 1,645
Releases: 0
From: Беларусь, Минск
On Forums: 12 years 1 month
Thanks: 779 time(s)
Belarus


Очень неплохо, да.


Thanks:
Go to the top of the page
  Insert nick Quick quote
+Quote Post
post Sep 20 2018, 05:07:16
Post #5

Crush! Kill! Destroy!
**************
Group: Металариец
Posts: 4,999
Releases: 15
From: Kaliningrad
On Forums: 11 years 9 months
Thanks: 4576 time(s)
Russian Federation


Вышак! Иммолейшн их нормально так покусали, заражение прошло успешно :-)

Ну и Everlasting Spew порадовали как лейбл, сначала Infuriate ураганный да Void Rot задумчивый, теперь вот это.


Thanks:
(1) samokot,
Go to the top of the page
  Insert nick Quick quote
+Quote Post
post Sep 28 2018, 02:10:31
Post #6

Правь статус, ####!111
**************
Group: Металариец
Posts: 18,179
Releases: 12292
From: Г.Харьков
On Forums: 7 years 3 months
Thanks: 207296 time(s)
Unknown


320 97mb
Register

Register

Register


Go to the top of the page
  Insert nick Quick quote
+Quote Post
post Nov 4 2018, 19:29:46
Post #7

Empty Words
**************
Group: Металариец
Posts: 2,026
Releases: 13
From: Москва
On Forums: 10 years 1 week
Thanks: 2433 time(s)
Russian Federation


Понравилось! Тяжко и олдскульно так давят, словно танк по кладбищу, а потом вдруг бац! — идут Immolation / Ulcerate инфлюенции. Можно сказать, удивили (IMG:style_emoticons/default/headcrab.png)
С удовольствием прикуплю, если оказия случится.
Go to the top of the page
  Insert nick Quick quote
+Quote Post

Reply to this topicStart new topic
2 User(s) are reading this topic (2 Guests and 0 Anonymous Users)
0 Members:

 



- Lo-Fi Version Support form
Copyrights and abuse reports form
Time is now: 23rd August 2019 - 09:42:45