Welcome Guest ( Log In | Register )

> 

Здесь релизы с живыми прямыми ссылками на lossless

> Cultes Des Ghoules - Sinister, Or Treading The Darker Paths (2018), Black Metal
post Sep 21 2018, 18:16:33
Post #1

Group Icon
Group: Curation team
Posts: 1,944
Releases: 148
On Forums: 13 years 11 months
Thanks: 15495 time(s)
Russian Federation


(IMG:http://metalarea.org/images/audiocovers/2018_Sep/acov_tid310899_thumb.jpg)

*Artist: Cultes Des Ghoules
*Album: Sinister, Or Treading The Darker Paths
*Year: 2018
*Genre: Black Metal
*Country: Poland (IMG:http://metalarea.org/forum/style_images/flags/Poland.png)
*Format: mp3@CBR320kbps
*Size: 120MB

Tracklist:
1. Children of the Moon 07:18
2. Woods of Power 10:59
3. Day of Joy 11:51
4. The Serenity of Nothingness 11:59
5. Where the Rainbow Ends 12:54
******************************
Total playing time: 55:01



Extended info
Under the Sign of Garazel / HELLS HEADBANGERS,
September, 23


Technical info
(IMG:http://metalarea.org/images/spectrogram/2018_Sep/17f1df9965cd76c508e9adfc29ea4747.png)
Input File: 05 - cultes des ghoules - where the rainbow ends.mp3
Channels : 2
Sample Rate : 44100
Precision : 16-bit
Duration : 00:12:54.92 = 34173796 samples = 58118.7 CDDA sectors
File Size : 31.2M
Bit Rate : 322k
Sample Encoding: MPEG audio (layer I, II or III)
Comments :
Title=Where The Rainbow Ends
Artist=Cultes Des Ghoules
Album=Sinister, Or Treading The Darker Paths
Tracknumber=05
Year=2018
Genre=Black Metal



Register


Go to the top of the page
  Insert nick Quick quote
+Quote Post
3 Pages V  < 1 2 3  
Start new topic
Replies (60 - 65)
post Aug 17 2019, 17:01:48
Post #61

Шесть Литров
******
Group: Металариец
Posts: 501
Releases: 0
On Forums: 1 year 3 months
Thanks: 357 time(s)
Russian Federation


Альбом прекрасен, и я даже сказал бы, что он лучший у формации. Первые три темы - вообще превосходны. Фирменная атмосфера ведьмовских ритуалов и шабашей тут достигает своего пика. Вокал во многом вытаскивает, харизматичности ему не занимать. Звучит он как более безумная версия Аттилы.


Go to the top of the page
  Insert nick Quick quote
+Quote Post
post Nov 22 2019, 19:53:46
Post #62
BAN
Banned till
Sep 9 2021, 02:13:52



Register


Go to the top of the page
  Insert nick Quick quote
+Quote Post
post Nov 22 2019, 20:42:52
Post #63

melofags sniper
**************
Group: Металариец
Posts: 5,559
Releases: 0
On Forums: 12 years 6 months
Thanks: 5096 time(s)
Unknown


QUOTE(Фо @ Nov 22 2019, 19:53:46) *

Thanks for sharing this masterpiece. Jam for pigs...


Thanks:
Go to the top of the page
  Insert nick Quick quote
+Quote Post
post Jan 8 2020, 13:29:28
Post #64

Два Литра
**
Group: Завсегдатай
Posts: 148
Releases: 2
From: г. Нальчик
On Forums: 7 years 9 months
Thanks: 453 time(s)
Russian Federation


Cultes des Ghoules - Sinister, or Treading the Darker Paths (2018), WAV Vinyl-Rip от Фо 519 MB
Добавлен файл CUE, с разбивкой WAV образа на треки.
Register


Thanks:
Go to the top of the page
  Insert nick Quick quote
+Quote Post
post Sep 16 2020, 22:04:20
Post #65

Full-of-Hate
**************
Group: Металариец
Posts: 3,857
Releases: 0
From: Moscow
On Forums: 11 years 2 months
Thanks: 3712 time(s)
Russian Federation


Безумный релиз.

Атмосфера неистового бесовского шабаша, до помутнения разума, до исступления. Весь альбом это такой бурлящий на костре котел с отваром из ядовитых грибов, дурманных трав, токсичных порошков и частей тел распотрашенных покойников, который тебе ржавым черпаком вливают в силой открытый рот.

CdG сумели создать совершенно уникальную атмосферу. Конечно, они metal и все такое, но в своем болезненно-деструктивном творчестве они оригнальны и это такой подход не имеет аналогов. Такое при желании невозможно воспроизвести (имею ввиду манеру). Альбом не на частую прослушку, но стоит начать и он просто уносит.
За счет вокальной манеры лично мне это творчество видится в художественном ключе... не покидает ощущение какой-то совсем поехавшей радиопостановки, где актеры, читающие по ролям, обдолбались, устроили оргию и перерезали друг друга.

Крутой альбом. Выразительный.

И упоротый.


Thanks:
(2) Chasm, kranger,
Go to the top of the page
  Insert nick Quick quote
+Quote Post
post Sep 16 2020, 23:04:06
Post #66

Два Литра
**
Group: Завсегдатай
Posts: 152
Releases: 0
On Forums: 5 months 6 days
Thanks: 125 time(s)
Unknown


Как с языка снял. (IMG:style_emoticons/default/7.gif) (IMG:style_emoticons/default/1488.gif)
Альбом крутейший конечно. (IMG:style_emoticons/default/true_black.gif)
Go to the top of the page
  Insert nick Quick quote
+Quote Post

3 Pages V  < 1 2 3
Reply to this topicStart new topic
2 User(s) are reading this topic (2 Guests and 0 Anonymous Users)
0 Members:

 



- Lo-Fi Version Support form
Copyrights and abuse reports form
Time is now: 20th September 2020 - 01:38:09