Welcome Guest ( Log In | Register )

> Releases Upload / Добавление релизов

Добавить релиз тут / Click here to add release
Рекомендованные обменники / Recommended file shares

> Daedius - Of Chaos And Resurgence (2018), Progressive/Technical Melodic Death Metal
post Sep 23 2018, 13:25:45
Post #1

Аннигилятор пивА
Group Icon
Group: V.I.P
Posts: 49,366
Releases: 15227
From: Koenigsberg - TILZIT
On Forums: 12 years 4 months
Thanks: 332435 time(s)
Russian Federation


(IMG:https://metalarea.org/images/audiocovers/2018_Sep/acov_tid310959_thumb.jpg)

*Artist: Daedius
*Album: Of Chaos And Resurgence
*Year: 2018
*Genre: Progressive/Technical Melodic Death Metal
*Country: Chile (IMG:https://metalarea.org/forum/style_images/flags/Chile.png)
*Format: mp3@CBR320kbps
*Size: 96MB

Tracklist:
1. Alignment 06:58
2. Of Plagues and Ignorance 05:44
3. Ancient Awakening 06:12
4. 432 (The Broken Balance) 04:30
5. Mask of Violence 06:16
6. R'lyeh 06:12
7. Oblivion 05:52
******************************
Total playing time: 41:44



Extended info
Francisco Lara - Guitars
Matias Espinoza - Vocals
José Herrera - Fretless Bass (2006-present)
Jorge Salinas - Guitars (2006-present)
Tomás García - Drums (2012-present) See also: Thornafire, ex-Naioth


Technical info
(IMG:https://metalarea.org/images/spectrogram/2018_Sep/c77716aedc034218a170c0292234696b.png)
Input File: 04 - 432 (The Broken Balance).mp3
Channels : 2
Sample Rate : 44100
Precision : 16-bit
Duration : 00:04:29.73 = 11895049 samples = 20229.7 CDDA sectors
File Size : 10.9M
Bit Rate : 323k
Sample Encoding: MPEG audio (layer I, II or III)
Comments :
Title=432 (The Broken Balance)
Artist=Daedius
Album=Of Chaos And Resurgence
Tracknumber=4
Year=2018



Register


Go to the top of the page
  Insert nick Quick quote
+Quote Post
 
Start new topic
Replies (1 - 7)
post Sep 24 2018, 07:13:24
Post #2

Аннигилятор пивА
Group Icon
Group: V.I.P
Posts: 49,366
Releases: 15227
From: Koenigsberg - TILZIT
On Forums: 12 years 4 months
Thanks: 332435 time(s)
Russian Federation


MIRROR
Register

Register




Go to the top of the page
  Insert nick Quick quote
+Quote Post
post Sep 25 2018, 13:51:32
Post #3

Маньяк
**********
Group: Металариец
Posts: 1,430
Releases: 0
From: Dnipro
On Forums: 10 years 3 months
Thanks: 387 time(s)
Ukraine


Альбом в рамках своего стиля совсем не плох.
Go to the top of the page
  Insert nick Quick quote
+Quote Post
post Sep 25 2018, 14:36:14
Post #4

Crush! Kill! Destroy!
**************
Group: Металариец
Posts: 4,602
Releases: 15
From: Kaliningrad
On Forums: 10 years 10 months
Thanks: 4288 time(s)
Russian Federation


Чилийский техно-мело - это вообще кокой-ты Франкенштейн (точнее его творение). Надо знакомиться.
Go to the top of the page
  Insert nick Quick quote
+Quote Post
post Sep 25 2018, 14:43:49
Post #5

Аннигилятор пивА
Group Icon
Group: V.I.P
Posts: 49,366
Releases: 15227
From: Koenigsberg - TILZIT
On Forums: 12 years 4 months
Thanks: 332435 time(s)
Russian Federation


ЦИТАТА(Dmitry1977 @ Sep 25 2018, 13:36:14) *
Чилийский техно-мело - это вообще кокой-ты Франкенштейн (точнее его творение). Надо знакомиться.

тут все близко к канадской школе с вкусным безладовым басом и прочими плюхами, примерно в районах смеси бейонд криэйшен и арсис


Thanks:
(1) samokot,
Go to the top of the page
  Insert nick Quick quote
+Quote Post
post Sep 25 2018, 19:32:27
Post #6

Правь статус, ####!111
**************
Group: Металариец
Posts: 3,126
Releases: 11
From: South Of Heaven
On Forums: 8 years 4 weeks
Thanks: 2681 time(s)
Russian Federation


отличный альбом!
Go to the top of the page
  Insert nick Quick quote
+Quote Post
post Oct 5 2018, 07:47:22
Post #7

Ъ
**************
Group: Металариец
Posts: 9,216
Releases: 9
On Forums: 9 years 9 months
Thanks: 1761 time(s)
Sweden


После двух треков с ютуба качать не захотелось, хотя то тут то там выделяешь инструменты, для Чили отлично конечно, качество на высшем уровне.
Go to the top of the page
  Insert nick Quick quote
+Quote Post
post Oct 5 2018, 20:49:46
Post #8

Empty Words
***********
Group: Металариец
Posts: 1,913
Releases: 8
From: Москва
On Forums: 9 years 2 months
Thanks: 2219 time(s)
Russian Federation


ЦИТАТА(aesteticvice @ Sep 25 2018, 16:43:49) *
тут все близко к канадской школе с вкусным безладовым басом и прочими плюхами, примерно в районах смеси бейонд криэйшен и арсис
Точняк! Трендовая музыка в духе "старших братьев" из Америки Северной, но сыграно приятно, качественно. Любителям зайдёт. И да, для Чили нетипично.
Go to the top of the page
  Insert nick Quick quote
+Quote Post

Reply to this topicStart new topic
2 User(s) are reading this topic (2 Guests and 0 Anonymous Users)
0 Members:

 



- Lo-Fi Version Support form
Copyrights and abuse reports form
Time is now: 15th October 2018 - 17:44:42