Welcome Guest ( Log In | Register )

> Releases Upload / Добавление релизов

Добавить релиз тут / Click here to add release
Рекомендованные обменники / Recommended file shares

> Evil Invaders - Broken Dreams In Isolation [single] (2018), Speed/Thrash Metal (D5)
post Sep 23 2018, 16:13:03
Post #1

Аннигилятор пивА
Group Icon
Group: V.I.P
Posts: 49,367
Releases: 15229
From: Koenigsberg - TILZIT
On Forums: 12 years 4 months
Thanks: 332440 time(s)
Russian Federation


(IMG:https://metalarea.org/images/audiocovers/2018_Sep/acov_tid310964_thumb.jpg)

*Artist: Evil Invaders
*Album: Broken Dreams In Isolation [single]
*Year: 2018
*Genre: Speed/Thrash Metal
*Country: Belgium (IMG:https://metalarea.org/forum/style_images/flags/Belgium.png)
*Format: mp3@CBR320kbps
*Size: 21MB

Tracklist:
1. Broken Dreams In Isolation (Re-Recorded) 04:19
2. The Unholy (Savatage Cover) 04:37
******************************
Total playing time: 8:56




Extended info
‘Broken Dreams In Isolation’ deserved better, so we re-recorded, re-mixed it and had it mastered at Fascination Street Studios (Arch Enemy, Kreator, Behemoth,…) to give the track the sound it deserves. The result definitely took our sound to a higher level and we hope people will really hear the difference between the previous version and the new one.
The single will be released on 7” vinyl and the B-side will be a cover track: ‘The Unholy’ of the mighty Savatage! We’re huge fans, but covering Savatage properly can be a real pain hehe! We gave the song our own touch but managed to keep the dark and wide sound of the original version. Check it out!

Joe - Vocals (lead), Guitars (2007-present)
Senne Jacobs - Drums (2011-present)
Max - Bass (2014-2015), Guitars (lead) (2015-present) See also: Constant Vulse, Death Assault, ex-Voltrage
Joeri - Bass (2015-present) See also: ex-Prematory, Brides of Lucifer


Technical info
(IMG:https://metalarea.org/images/spectrogram/2018_Sep/45fde7bc84876df0b8e6043d44825ff8.png)
Input File: 01. Broken Dreams In Isolation.mp3
Channels : 2
Sample Rate : 44100
Precision : 16-bit
Duration : 00:04:19.87 = 11460267 samples = 19490.2 CDDA sectors
File Size : 10.5M
Bit Rate : 323k
Sample Encoding: MPEG audio (layer I, II or III)
Comments :
Title=Broken Dreams in Isolation (Re-Recorded)
Artist=Evil Invaders
Album=Broken Dreams In Isolation
Tracknumber=01
Year=2018
Genre=Speed Metal



Register


Go to the top of the page
  Insert nick Quick quote
+Quote Post
 
Start new topic
Replies (1 - 2)
post Sep 24 2018, 07:25:25
Post #2

Аннигилятор пивА
Group Icon
Group: V.I.P
Posts: 49,367
Releases: 15229
From: Koenigsberg - TILZIT
On Forums: 12 years 4 months
Thanks: 332440 time(s)
Russian Federation


MIRROR
Register



Thanks:
Go to the top of the page
  Insert nick Quick quote
+Quote Post
post Sep 25 2018, 18:22:10
Post #3

Пять Литров
*****
Group: Металариец
Posts: 477
Releases: 0
On Forums: 9 years 3 months
Thanks: 104 time(s)
Ukraine


улётная банда!!!
Go to the top of the page
  Insert nick Quick quote
+Quote Post

Reply to this topicStart new topic
2 User(s) are reading this topic (2 Guests and 0 Anonymous Users)
0 Members:

 



- Lo-Fi Version Support form
Copyrights and abuse reports form
Time is now: 15th October 2018 - 18:19:52