Welcome Guest ( Log In | Register )

> Steingrab - Jahre Nach Der Pest (2018), Atmospheric Black Metal
post Sep 23 2018, 19:53:58
Post #1

Правь статус, ####!111
**************
Group: Металариец
Posts: 21,894
Releases: 15100
From: Г.Харьков
On Forums: 8 years 2 weeks
Thanks: 273912 time(s)
Unknown


(IMG:http://metalarea.org/images/audiocovers/2018_Sep/acov_tid310968_thumb.jpg)

*Artist: Steingrab
*Album: Jahre Nach Der Pest
*Year: 2018
*Genre: Atmospheric Black Metal
*Country: Germany (IMG:http://metalarea.org/forum/style_images/flags/Germany.png)
*Format: mp3@CBR320kbps
*Size: 91MB

Tracklist:
01. Präludium
02. Dämon
03. Rachewalzer
04. Das Trübe Glas
05. Fort Von Hier
06. Falscher Frühling
07. Der Trübe See
08. Mondfinsternis
09. Jahre Nach Der Pest
10. Walzer Toter Zukunft
11. Verlorene Engel
******************************
Total playing time: 43:15



Extended info
Mahr Everything (2008-present)
See also: Morok, ex-Alrakis, ex-Nargis


Technical info
(IMG:http://metalarea.org/images/spectrogram/2018_Sep/fc1445e1ccb7020dfbb44c5c0b4ceaa8.png)
Input File: 03. Rachewalzer.mp3
Channels : 2
Sample Rate : 44100
Precision : 16-bit
Duration : 00:03:29.39 = 9233923 samples = 15704 CDDA sectors
File Size : 8.46M
Bit Rate : 323k
Sample Encoding: MPEG audio (layer I, II or III)
Comments :
Title=Rachewalzer
Artist=Steingrab
Album=Jahre nach der Pest
Tracknumber=3
Year=2018
Discnumber=1



Register


Go to the top of the page
  Insert nick Quick quote
+Quote Post
 
Start new topic
Replies (1 - 2)
post Sep 24 2018, 13:15:20
Post #2

Правь статус, ####!111
**************
Group: Металариец
Posts: 21,894
Releases: 15100
From: Г.Харьков
On Forums: 8 years 2 weeks
Thanks: 273912 time(s)
Unknown


Cloud Mail 320
Register


Go to the top of the page
  Insert nick Quick quote
+Quote Post
post Sep 25 2018, 00:34:50
Post #3

Правь статус, ####!111
**************
Group: Металариец
Posts: 2,459
Releases: 11
From: Canada
On Forums: 12 years 11 months
Thanks: 1639 time(s)
Canada




Thanks:
Go to the top of the page
  Insert nick Quick quote
+Quote Post

Reply to this topicStart new topic
2 User(s) are reading this topic (2 Guests and 0 Anonymous Users)
0 Members:

 



- Lo-Fi Version Support form
Copyrights and abuse reports form
Time is now: 30th May 2020 - 23:15:10