Welcome Guest ( Log In | Register )

> Releases Upload / Добавление релизов

Добавить релиз тут / Click here to add release
Рекомендованные обменники / Recommended file shares

> Alexandra Zerner - Opus 1880 (2018), Progressive Metal
post Sep 24 2018, 02:57:12
Post #1

Аннигилятор пивА
Group Icon
Group: V.I.P
Posts: 49,408
Releases: 15247
From: Koenigsberg - TILZIT
On Forums: 12 years 4 months
Thanks: 332744 time(s)
Russian Federation


(IMG:https://metalarea.org/images/audiocovers/2018_Sep/acov_tid310975_thumb.jpg)

*Artist: Alexandra Zerner
*Album: Opus 1880
*Year: 2018
*Genre: Progressive Metal
*Country: Bulgaria (IMG:https://metalarea.org/forum/style_images/flags/Bulgaria.png)
*Format: mp3@CBR320kbps
*Size: 283MB

Tracklist:
01. Overture (feat. Ivan Ivanov)
02. Chaos of Cards (feat. Angel Wolf-Black)
03. The Oracle (feat. Angel Wolf-Black & Ivan Ivanov)
04. Mirrors
05. Quest of Light (feat. Angel Wolf-Black)
06. The Sound of Dreaming (feat. Angel Wolf-Black, Mistheria & Nora Kalcheva)
07. Questions (feat. Angel Wolf-Black)
08. Letter to Nowhere (feat. Angel Wolf-Black)
09. Diamind
10. Pinch of Time (feat. Angel Wolf-Black)
11. The Missed Dance (feat. Angel Wolf-Black)
12. Desaturation Point (feat. Bobby Koelble)
13. Master of Lightning (feat. Angel Wolf-Black, Ivan Ivanov & Iavor Pachovski)
14. The Other Side of the Sky, Pt. 1 (feat. Svetlana Bliznakova)
15. Unfairlytale (feat. Gretchen Menn)
16. Cumulonimbi
17. Dolphins (feat. Misha Iliev)
18. Electric Kisses (feat. Franck Hermanny)
19. Sensosphere (feat. Ivan Ivanov)
20. Five Gardens
21. The Other Side of the Sky, Pt. 2 (feat. Svetlana Bliznakova)
22. Youtopia
******************************
Total playing time: 2:01:29



Extended info
double-CD
Born in Sofia, Bulgaria, Alexandra Zerner is a solo artist, guitar player, multi-instrumentalist and composer. She has been working as a session musician, sound engineer and guitar teacher since 2001...




Technical info
(IMG:https://metalarea.org/images/spectrogram/2018_Sep/6c9ab0d296687f01de23018e5f6d8345.png)
Input File: 08. Letter to Nowhere (feat. Angel Wolf-Black).mp3
Channels : 2
Sample Rate : 44100
Precision : 16-bit
Duration : 00:02:36.02 = 6880262 samples = 11701.1 CDDA sectors
File Size : 6.50M
Bit Rate : 333k
Sample Encoding: MPEG audio (layer I, II or III)
Comments :
Title=Letter to Nowhere (feat. Angel Wolf-Black)
Artist=Alexandra Zerner
Album=Opus 1880
Tracknumber=8/22
Year=2018
Discnumber=1/1



Register


Go to the top of the page
  Insert nick Quick quote
+Quote Post
 
Start new topic
Replies (1 - 4)
post Sep 24 2018, 07:30:08
Post #2

Аннигилятор пивА
Group Icon
Group: V.I.P
Posts: 49,408
Releases: 15247
From: Koenigsberg - TILZIT
On Forums: 12 years 4 months
Thanks: 332744 time(s)
Russian Federation


MIRROR
Register


Go to the top of the page
  Insert nick Quick quote
+Quote Post
post Sep 24 2018, 09:44:40
Post #3

Тридцать лет на борту "Тяжёлого" крейсера
***********
Group: Металариец
Posts: 1,829
Releases: 0
From: Питер
On Forums: 11 years 4 months
Thanks: 422 time(s)
Russian Federation


Скучно до одури
И профессиональное мастерство музыкантов оставляет желать лучшего


Thanks:
Go to the top of the page
  Insert nick Quick quote
+Quote Post
post Sep 24 2018, 16:36:02
Post #4

21st Century Schizoid Man
**************
Group: Металариец
Posts: 5,282
Releases: 67
From: Moscow
On Forums: 10 years 5 months
Thanks: 4150 time(s)
Russian Federation


Внезапно - понравилось. Прежде всего хочу отметить прекрасный вокал гречанки по имени Angel Wolf-Black и изысканную гитару самой Александры Цернер, этакий акустический и менее пафосный вариант Лукассена.

Девушка на вокале:
Go to the top of the page
  Insert nick Quick quote
+Quote Post
post Sep 27 2018, 12:08:11
Post #5

21st Century Schizoid Man
**************
Group: Металариец
Posts: 5,282
Releases: 67
From: Moscow
On Forums: 10 years 5 months
Thanks: 4150 time(s)
Russian Federation


Go to the top of the page
  Insert nick Quick quote
+Quote Post

Reply to this topicStart new topic
2 User(s) are reading this topic (2 Guests and 0 Anonymous Users)
0 Members:

 



- Lo-Fi Version Support form
Copyrights and abuse reports form
Time is now: 17th October 2018 - 13:08:32