Welcome Guest ( Log In | Register )

> Releases Upload / Добавление релизов

Добавить релиз тут / Click here to add release
Рекомендованные обменники / Recommended file shares

> Human Decay - Mefitico (2018), Death Metal
post Sep 24 2018, 04:44:12
Post #1

Serial Uploader
Group Icon
Group: V.I.P
Posts: 33,121
Releases: 31406
From: Lithuania
On Forums: 10 years 4 months
Thanks: 359169 time(s)
Lithuania


(IMG:http://metalarea.org/images/audiocovers/2018_Sep/acov_tid310978_thumb.jpg)

*Artist: Human Decay
*Album: Mefitico
*Year: 2018
*Genre: Death Metal
*Country: Italy (IMG:http://metalarea.org/forum/style_images/flags/Italy.png)
*Format: mp3@CBR320kbps
*Size: 84MB

Tracklist:
01. Abusami
02. Patto con il demonio
03. Giuda
04. Aride note
05. Disgustoso
06. Verme!
07. Niente da perdere
08. L'Abisso
******************************
Total playing time: 36:28



Technical info
(IMG:http://metalarea.org/images/spectrogram/2018_Sep/c90dc3222e5f7a474a554f75dc5eaf57.png)
Input File: 02. Patto con il demonio.mp3
Channels : 2
Sample Rate : 44100
Precision : 16-bit
Duration : 00:04:48.07 = 12703931 samples = 21605.3 CDDA sectors
File Size : 11.5M
Bit Rate : 320k
Sample Encoding: MPEG audio (layer I, II or III)
Comments :
Title=Patto con il demonio
Artist=Human Decay
Album=Mefitico
Tracknumber=2/8
Year=2018



Register


Go to the top of the page
  Insert nick Quick quote
+Quote Post
 
Start new topic
Replies (1 - 1)
post Sep 24 2018, 07:28:46
Post #2

Аннигилятор пивА
Group Icon
Group: V.I.P
Posts: 49,366
Releases: 15227
From: Koenigsberg - TILZIT
On Forums: 12 years 4 months
Thanks: 332439 time(s)
Russian Federation


83MB/320
Register




Go to the top of the page
  Insert nick Quick quote
+Quote Post

Reply to this topicStart new topic
2 User(s) are reading this topic (2 Guests and 0 Anonymous Users)
0 Members:

 



- Lo-Fi Version Support form
Copyrights and abuse reports form
Time is now: 15th October 2018 - 18:08:23