Welcome Guest ( Log In | Register )

> Releases Upload / Добавление релизов

Добавить релиз тут / Click here to add release
Рекомендованные обменники / Recommended file shares

> Mania - Reality Is The True Horror (2018), Atmospheric Black Metal
post Sep 24 2018, 16:44:18
Post #1

Аннигилятор пивА
Group Icon
Group: V.I.P
Posts: 49,369
Releases: 15229
From: Koenigsberg - TILZIT
On Forums: 12 years 4 months
Thanks: 332456 time(s)
Russian Federation


(IMG:https://metalarea.org/images/audiocovers/2018_Sep/acov_tid310989_thumb.jpg)

*Artist: Mania
*Album: Reality Is The True Horror
*Year: 2018
*Genre: Atmospheric Black Metal
*Country: United States (IMG:https://metalarea.org/forum/style_images/flags/United%20States.png)
*Format: mp3@CBR320kbps
*Size: 106MB

Tracklist:
1. Getting Nowhere 02:06
2. End Everything 02:52
3. Virion 03:23
4. Where Is God? 07:23
5. Endless State of Decay 04:12
6. Philosophy of Desire 02:28
7. Black 06:41
8. No Escape 05:58
9. No Future 07:56
******************************
Total playing time: 42:59



Extended info
Nate Myers - All instruments (2004-present), Vocals (2004-present) See also: Iron Scepter, Predatory Light, Splatterhouse, Vault Dweller, Hell, Vanum, ex-Leech, Flesh Amulet, Kvlt 45, Nulla Cur, River, Will o the Wisp, ex-Velnias, ex-Disneyland, ex-Sars
Guest:
Nick Superchi - Piano (tracks 4 & 5) (Mysticism Black, MotörThrone, The Dead, Thy Emptiness, ex-Ceremonial Castings, ex-Abigail Williams, ex-Detrusion, ex-Hellchasm )
Gina Eygenhuysen - Violin (tracks 4 & 5) (Weeping Sores, Indian Blanket, Fister)


Technical info
(IMG:https://metalarea.org/images/spectrogram/2018_Sep/8749b7e721b0bbd7e5e120afbb4516bc.png)
Input File: 02. End Everything.mp3
Channels : 2
Sample Rate : 48000
Precision : 16-bit
Duration : 00:02:52.06 = 8258832 samples ~ 12904.4 CDDA sectors
File Size : 7.89M
Bit Rate : 367k
Sample Encoding: MPEG audio (layer I, II or III)
Comments :
Title=End Everything
Artist=Mania
Album=Reality Is The True Horror
Tracknumber=2
Year=2018
Genre=Black Metal



Register


Go to the top of the page
  Insert nick Quick quote
+Quote Post
 
Start new topic
Replies (1 - 1)
post Sep 25 2018, 11:09:29
Post #2

Аннигилятор пивА
Group Icon
Group: V.I.P
Posts: 49,369
Releases: 15229
From: Koenigsberg - TILZIT
On Forums: 12 years 4 months
Thanks: 332456 time(s)
Russian Federation


mirror
Register


Go to the top of the page
  Insert nick Quick quote
+Quote Post

Reply to this topicStart new topic
2 User(s) are reading this topic (2 Guests and 0 Anonymous Users)
0 Members:

 



- Lo-Fi Version Support form
Copyrights and abuse reports form
Time is now: 15th October 2018 - 19:13:42