Welcome Guest ( Log In | Register )

> Releases Upload / Добавление релизов

Добавить релиз тут / Click here to add release
Рекомендованные обменники / Recommended file shares

> Blood Of Serpents - Sulphur Sovereign (2018), Black/Death Metal (D4)
post Sep 24 2018, 19:56:37
Post #1

Аннигилятор пивА
Group Icon
Group: V.I.P
Posts: 49,369
Releases: 15229
From: Koenigsberg - TILZIT
On Forums: 12 years 4 months
Thanks: 332453 time(s)
Russian Federation


(IMG:https://metalarea.org/images/audiocovers/2018_Sep/acov_tid311000_thumb.jpg)

*Artist: Blood Of Serpents
*Album: Sulphur Sovereign
*Year: 2018
*Genre: Black/Death Metal
*Country: Sweden (IMG:https://metalarea.org/forum/style_images/flags/Sweden.png)
*Format: mp3@CBR320kbps
*Size: 101MB

Tracklist:
01. Mater Tenebris 05:04
02. In Darkness, Brotherhood 04:06
03. Devil's Tongue 03:55
04. Evictor of Christ 05:04
05. As the Temple Burns 07:14
06. Canticle 02:32
07. As Nocturnal Dimensions Beckon 04:59
08. Upon Waters Dark 05:42
09. Prophet of a False Faith 04:40
10. A Void Between Worlds 04:55
******************************
Total playing time: 48:11




Extended info
Benny Åkeson - Bass (2012-present)
Kristian Roupe - Drums (2012-2013), Guitars (2013-present)
Fredrik Nilsson - Guitars (2012-present)
Christoffer Andersson - Drums (2013-present)
Thomas Clifford - Vocals (2018-present) See also: Abscession, Throne of Heresy, Zombie Destrüktion


Technical info
(IMG:https://metalarea.org/images/spectrogram/2018_Sep/c5928107d91fcd166b43b56cd8c6b349.png)
Input File: 02. In Darkness, Brotherhood.mp3
Channels : 2
Sample Rate : 44100
Precision : 16-bit
Duration : 00:03:56.11 = 10412451 samples = 17708.2 CDDA sectors
File Size : 9.51M
Bit Rate : 322k
Sample Encoding: MPEG audio (layer I, II or III)
Comments :
Title=In Darkness, Brotherhood
Artist=Blood Of Serpents
Album=Sulphur Sovereign
Tracknumber=2
Year=2018
Discnumber=1



Register


Go to the top of the page
  Insert nick Quick quote
+Quote Post
 
Start new topic
Replies (1 - 6)
post Sep 25 2018, 11:03:42
Post #2

Аннигилятор пивА
Group Icon
Group: V.I.P
Posts: 49,369
Releases: 15229
From: Koenigsberg - TILZIT
On Forums: 12 years 4 months
Thanks: 332453 time(s)
Russian Federation


убойный и яростный шведо-сатаник, по злобе можно вспомнить ранний мардук и дарк фунерал, естесственно с шведским прононсом, я убрал трэш из стиля, там какие-то миазмы его витают на статическом уровне


MIRROR
Register

Register






Go to the top of the page
  Insert nick Quick quote
+Quote Post
post Sep 25 2018, 12:53:11
Post #3

Литр
*
Group: Подсевший
Posts: 61
Releases: 0
On Forums: 7 months 4 days
Thanks: 3 time(s)
Argentina


Thanks!!! (IMG:style_emoticons/default/9.gif)
Go to the top of the page
  Insert nick Quick quote
+Quote Post
post Sep 25 2018, 13:20:24
Post #4

Маньяк
**********
Group: Металариец
Posts: 1,430
Releases: 0
From: Dnipro
On Forums: 10 years 3 months
Thanks: 387 time(s)
Ukraine


Тут есть что послушать (IMG:style_emoticons/default/20.gif)
Go to the top of the page
  Insert nick Quick quote
+Quote Post
post Sep 25 2018, 13:26:18
Post #5

\m/
Group Icon
Group: S-moderation team
Posts: 7,505
Releases: 19
From: Петропавловск-Камчатский
On Forums: 9 years 4 months
Thanks: 6810 time(s)
Russian Federation


Превью заманчивое, действительно злобно, надо слушать.
Go to the top of the page
  Insert nick Quick quote
+Quote Post
post Sep 25 2018, 15:29:26
Post #6

Четыре Литра
****
Group: Металариец
Posts: 353
Releases: 0
From: Катин город
On Forums: 9 years 10 months
Thanks: 149 time(s)
Russian Federation


ЦИТАТА(aesteticvice @ 25th September 2018 - 15:03:42) *
по злобе можно вспомнить ранний мардук

Местами прям копия, но это неплохо, хороший злющий материал.


Thanks:
(1) BERZERK,
Go to the top of the page
  Insert nick Quick quote
+Quote Post
post Oct 2 2018, 02:56:00
Post #7

Литр
*
Group: Подсевший
Posts: 79
Releases: 0
On Forums: 3 months 1 day
Thanks: 100 time(s)
Russian Federation



Крепкий альбом. Про влияния сказано достаточно, единственное, хочется добавить, что здесь параллели не в последнюю очередь именно с актуальным творчеством и тех и других шведов. Да и продюсерский центр Marduk даёт о себе знать - экс ударник и нынешний басист плотно поработали над записью.
Go to the top of the page
  Insert nick Quick quote
+Quote Post

Reply to this topicStart new topic
2 User(s) are reading this topic (2 Guests and 0 Anonymous Users)
0 Members:

 



- Lo-Fi Version Support form
Copyrights and abuse reports form
Time is now: 15th October 2018 - 19:00:55