Welcome Guest ( Log In | Register )

> 

Здесь релизы с живыми прямыми ссылками на lossless

> Un - Sentiment (2018), Atmospheric Funeral Doom Metal
post Sep 27 2018, 18:04:46
Post #1

Аннигилятор пивА
Group Icon
Group: V.I.P
Posts: 52,358
Releases: 16557
From: Koenigsberg - TILZIT
On Forums: 13 years 2 months
Thanks: 361929 time(s)
Russian Federation


(IMG:https://metalarea.org/images/audiocovers/2018_Sep/acov_tid311142_thumb.jpg)

*Artist: Un
*Album: Sentiment
*Year: 2018
*Genre: Atmospheric Funeral Doom Metal
*Country: United States (IMG:https://metalarea.org/forum/style_images/flags/United%20States.png)
*Format: mp3@CBR320kbps
*Size: 127MB

Tracklist:
01. In Its Absence 13:42
02. Pools of Reflection 11:55
03. Sentiment 12:05
04. A Garden Where Nothing Grows 15:33
******************************
Total playing time: 53:15




Extended info
Clayton Wolff - Bass See (Idols)
Alex - Drums
Monte Mccleery - Guitars, Vocals (Samothrace)
David Wright - Guitars
Additional vocals on Pools of Reflection by Kelly Schilling (Dreadnought, Kastigation, Stoic Dissention, SubRosa)
Additional vocals on A Garden Where Nothing Grows by Ethan McCarthy (Primitive Man, ex-Clinging to the Trees of a Forest Fire, ex-Vermin Womb, Many Blessings, ex-Withered, ex-Catheter, ex-Death of Self, ex-Keep)


Technical info
(IMG:https://metalarea.org/images/spectrogram/2018_Sep/1742b2a2567355a3564794c35528cdfb.png)
Input File: 02. Pools of Reflection.mp3
Channels : 2
Sample Rate : 44100
Precision : 16-bit
Duration : 00:11:55.93 = 31572293 samples = 53694.4 CDDA sectors
File Size : 29.3M
Bit Rate : 328k
Sample Encoding: MPEG audio (layer I, II or III)
Comments :
Title=Pools of Reflection
Artist=Un
Album=Sentiment
Tracknumber=2/4
Year=2018
Genre=Metal
Discnumber=1/1



Register


Go to the top of the page
  Insert nick Quick quote
+Quote Post
 
Start new topic
Replies (1 - 5)
post Sep 28 2018, 07:19:05
Post #2

Аннигилятор пивА
Group Icon
Group: V.I.P
Posts: 52,358
Releases: 16557
From: Koenigsberg - TILZIT
On Forums: 13 years 2 months
Thanks: 361929 time(s)
Russian Federation


MIRROR
Register



Go to the top of the page
  Insert nick Quick quote
+Quote Post
post Sep 28 2018, 16:23:35
Post #3

Правь статус, ####!111
**************
Group: Металариец
Posts: 2,558
Releases: 7
From: Dnipro
On Forums: 11 years 1 month
Thanks: 751 time(s)
Ukraine


2015-ый у них был вполне не плох, с этим нужно обязательно ознакомиться.
Go to the top of the page
  Insert nick Quick quote
+Quote Post
post Sep 28 2018, 18:20:25
Post #4

Осторожно, страдаю тяжёлой музыкальной зависимостью!
**********
Group: Металариец
Posts: 1,012
Releases: 8
From: Санкт-Петербург
On Forums: 12 years 5 months
Thanks: 372 time(s)
Russian Federation


Достаточно стандартный альбом для стиля, без особых гениальностей, но очень добротный и приятный - 8/10.
Go to the top of the page
  Insert nick Quick quote
+Quote Post
post Feb 11 2019, 16:11:49
Post #5

赑屃
***
Group: Завсегдатай
Posts: 242
Releases: 5
From: Луганск
On Forums: 2 years 4 months
Thanks: 119 time(s)
Russian Federation


Нормальный, приличный тягучий 53-минутный пиндосовский фунерал дум-дэз без скоростных запилов, умеренно брутальный, нормированно мелодичный и достаточно атмосферный, с неплохим рычанием, блюзовым налётом и капелькой женской подпевки..
Go to the top of the page
  Insert nick Quick quote
+Quote Post
post Aug 23 2019, 09:41:22
Post #6


Group Icon
Group: S-moderation team
Posts: 11,373
Releases: 1438
From: Zagreb
On Forums: 8 years 5 months
Thanks: 48726 time(s)
Croatia


Register
Go to the top of the page
  Insert nick Quick quote
+Quote Post

Reply to this topicStart new topic
1 User(s) are reading this topic (1 Guests and 0 Anonymous Users)
0 Members:

 



- Lo-Fi Version Support form
Copyrights and abuse reports form
Time is now: 25th August 2019 - 05:27:42