Welcome Guest ( Log In | Register )

> Ethelyn - Impure Incitements (2018), Melodic Black/Death Metal
post Sep 27 2018, 18:58:00
Post #1

Правь статус, ####!111
**************
Group: Металариец
Posts: 21,863
Releases: 15074
From: Г.Харьков
On Forums: 8 years 2 weeks
Thanks: 273153 time(s)
Unknown


(IMG:https://metalarea.org/images/audiocovers/2018_Sep/acov_tid311145_thumb.jpg)

*Artist: Ethelyn
*Album: Impure Incitements
*Year: 2018
*Genre: Melodic Black/Death Metal
*Country: Poland (IMG:https://metalarea.org/forum/style_images/flags/Poland.png)
*Format: mp3@CBR320kbps
*Size: 75MB

Tracklist:
1. Vector Equilibrium 03:59
2. Bloodspeech 03:49
3. Ophiuchus 04:00
4. Pile Of Dead Mermaids 04:31
5. Dirge in Fire 02:59
6. A Man With Two Souls 03:26
7. Ignominy 04:23
8. Bringer of Ill-will 03:57
9. Nothing Worth to Live for 04:34
******************************
Total playing time: 35:38




Extended info
Morbid Drums (1995-present)
See also: Repossession, Prezes Zarządu
Mysth Vocals (2002-present)
See also: Deathstorm, Kira, ex-Horns, ex-Nemrod, ex-Empire of the Soil
Wrath Bass (2007-present)
See also: Repossession
Bogunieslav Guitars (2009-present)
See also: ex-Black Nebula
Dante Guitars (2017-present)
See also: Chimera, ex-Mammon


Technical info
(IMG:https://metalarea.org/images/spectrogram/2018_Sep/bfd2f9996ece57ac94436164aec71103.png)
Input File: 03 - Ophiuchus.mp3
Channels : 2
Sample Rate : 44100
Precision : 16-bit
Duration : 00:04:00.63 = 10611651 samples = 18047 CDDA sectors
File Size : 9.72M
Bit Rate : 323k
Sample Encoding: MPEG audio (layer I, II or III)
Comments :
Title=Ophiuchus
Artist=Ethelyn
Album=Impure Incitements
Tracknumber=03/09
Year=2018
Discnumber=1/1



Register


Go to the top of the page
  Insert nick Quick quote
+Quote Post
 
Start new topic
Replies (1 - 4)
post Sep 28 2018, 14:32:20
Post #2

Правь статус, ####!111
**************
Group: Металариец
Posts: 21,863
Releases: 15074
From: Г.Харьков
On Forums: 8 years 2 weeks
Thanks: 273153 time(s)
Unknown


Cloud Mail 320
Register
Go to the top of the page
  Insert nick Quick quote
+Quote Post
post Sep 28 2018, 16:28:00
Post #3

Правь статус, ####!111
**************
Group: Металариец
Posts: 3,001
Releases: 8
From: Dnipro
On Forums: 11 years 10 months
Thanks: 970 time(s)
Ukraine


Странная эта польская формация, уже кучу альбомов выпустили, но такое ощущение что с каждым альбомом все хуже и хуже.
Go to the top of the page
  Insert nick Quick quote
+Quote Post
post Oct 5 2018, 08:39:40
Post #4

Ъ
**************
Group: Металариец
Posts: 10,053
Releases: 9
On Forums: 11 years 4 months
Thanks: 2016 time(s)
Sweden


Можно на раз прогнать, но мне и пол альбома хватило.
Go to the top of the page
  Insert nick Quick quote
+Quote Post
post May 23 2020, 11:08:45
Post #5

Group: Подсевший
Posts: 19
Releases: 0
On Forums: 2 years 6 months
Thanks: 1 time(s)
Ukraine


Не знаю чем вам не угодил альбом. Вполне себе очень мощный, грязный и мелодичный блэкдэт. Много запоминающихся композиций, качевых рифов. Единственное что огорчило, так это звук, какой-то он слишком сырой, на предыдущих альбомах мастеринг был однозначно лучше.
Go to the top of the page
  Insert nick Quick quote
+Quote Post

Reply to this topicStart new topic
1 User(s) are reading this topic (1 Guests and 0 Anonymous Users)
0 Members:

 



- Lo-Fi Version Support form
Copyrights and abuse reports form
Time is now: 28th May 2020 - 09:06:49