Welcome Guest ( Log In | Register )

> Forbidden Site - Catharsis [demo] (1994), Death/Black/Gothic Metal
post Sep 29 2018, 20:02:23
Post #1

𝕻𝕬𝕹𝕬𝕮𝕰𝕬
*******
Group: Металариец
Posts: 746
Releases: 428
On Forums: 7 years 7 months
Thanks: 6730 time(s)
Unknown


(IMG:http://metalarea.org/images/audiocovers/2018_Sep/acov_tid311220_thumb.jpg)

*Artist: Forbidden Site
*Album: Catharsis [demo]
*Year: 1994
*Genre: Death/Black/Gothic Metal
*Country: France (IMG:http://metalarea.org/forum/style_images/flags/France.png)
*Format: mp3@CBR256kbps
*Size: 43MB

Tracklist:
1. Heretic 04:15
2. Celebrating My Desolation 08:40
3. Children Of Doom 09:08
4. Anathema 01:53
******************************
Total playing time: 23:56

Technical info
(IMG:http://metalarea.org/images/spectrogram/2018_Sep/d5ceb093593078912f32a403819c0506.png)
Input File: 04 - Anathema.mp3
Channels : 2
Sample Rate : 44100
Precision : 16-bit
Duration : 00:01:54.00 = 5027488 samples = 8550.15 CDDA sectors
File Size : 3.65M
Bit Rate : 256k
Sample Encoding: MPEG audio (layer I, II or III)
Comments :
Title=Anathema
Artist=Forbidden Site
Album=Catharsis
Tracknumber=4
Year=1994
Genre=Death/Gothic Metal



Register


Go to the top of the page
  Insert nick Quick quote
+Quote Post
 
Start new topic
Replies (1 - 1)
post Sep 30 2018, 09:27:30
Post #2

𝕻𝕬𝕹𝕬𝕮𝕰𝕬
*******
Group: Металариец
Posts: 746
Releases: 428
On Forums: 7 years 7 months
Thanks: 6730 time(s)
Unknown


Go to the top of the page
  Insert nick Quick quote
+Quote Post

Reply to this topicStart new topic
1 User(s) are reading this topic (1 Guests and 0 Anonymous Users)
0 Members:

 



- Lo-Fi Version Support form
Copyrights and abuse reports form
Time is now: 26th January 2020 - 16:55:46