Welcome Guest ( Log In | Register )

> Releases Upload / Добавление релизов

Добавить релиз тут / Click here to add release
Рекомендованные обменники / Recommended file shares

> Ye Goat-Herd Gods - Ashes Shall Be Made Of Them (2018), Black Metal
post Oct 8 2018, 20:18:07
Post #1

Аннигилятор пивА
Group Icon
Group: V.I.P
Posts: 49,504
Releases: 15303
From: Koenigsberg - TILZIT
On Forums: 12 years 4 months
Thanks: 333501 time(s)
Russian Federation


(IMG:https://metalarea.org/images/audiocovers/2018_Oct/acov_tid311528_thumb.jpg)

*Artist: Ye Goat-Herd Gods
*Album: Ashes Shall Be Made Of Them
*Year: 2018
*Genre: Black Metal
*Country: Canada (IMG:https://metalarea.org/forum/style_images/flags/Canada.png)
*Format: mp3@CBR320kbps
*Size: 99MB

Tracklist:
01. Ribspreader
02. Remember Me
03. Skål!
04. Helldiver
05. Bones of Humanity
06. Arduous March
07. Ancient Hell
08. Shade of Astaroth
09. I Am Reborn
10. The Dreaming City
******************************
Total playing time: 43:10




Extended info
Jeanie Keebler - Guitar (ex-Despirited)
Gord Olson - Vocals and Guitar (Demisery, ex-Despirited)
Matt Riley - Bass (ex-Carnal Sickness, ex-Myrmidon)
Matt Telgen - Drums


Technical info
(IMG:https://metalarea.org/images/spectrogram/2018_Oct/8fc70c375f379ac28d2a88c434bbb532.png)
Input File: 01. Ribspreader.mp3
Channels : 2
Sample Rate : 44100
Precision : 16-bit
Duration : 00:04:14.29 = 11214321 samples = 19072 CDDA sectors
File Size : 10.2M
Bit Rate : 322k
Sample Encoding: MPEG audio (layer I, II or III)
Comments :
Title=Ribspreader
Artist=Ye Goat-Herd Gods
Album=Ashes Shall Be Made of Them
Tracknumber=1
Year=2018
Discnumber=1



Register


Go to the top of the page
  Insert nick Quick quote
+Quote Post
 
Start new topic
Replies (1 - 4)
post Oct 9 2018, 07:19:08
Post #2

Аннигилятор пивА
Group Icon
Group: V.I.P
Posts: 49,504
Releases: 15303
From: Koenigsberg - TILZIT
On Forums: 12 years 4 months
Thanks: 333501 time(s)
Russian Federation


MIRROR
Register


Thanks:
(1) nsk2008,
Go to the top of the page
  Insert nick Quick quote
+Quote Post
post Oct 9 2018, 16:14:34
Post #3

Маньяк
**********
Group: Металариец
Posts: 1,447
Releases: 0
From: Dnipro
On Forums: 10 years 3 months
Thanks: 388 time(s)
Ukraine


Good stuff (IMG:style_emoticons/default/20.gif)
Go to the top of the page
  Insert nick Quick quote
+Quote Post
post Oct 12 2018, 09:21:58
Post #4

Семь Литров
*******
Group: Металариец
Posts: 760
Releases: 0
From: Новосибирск
On Forums: 9 years 1 month
Thanks: 199 time(s)
Russian Federation


Вопрос по видеоклипу: и что за дебильная мода в последнее десятилетие пошла у вокалистов "блэцк митол" групп бриться налысо и отращивать себе якобы "викингские" бороды? Всемирную секту криптоговнарей сколотили, что ли? (IMG:style_emoticons/default/smile3.gif)
Go to the top of the page
  Insert nick Quick quote
+Quote Post
post Oct 14 2018, 00:03:30
Post #5

Победитель судьбы
**************
Group: Металариец
Posts: 5,156
Releases: 0
From: Страны Мамонтов
On Forums: 11 years 7 months
Thanks: 1772 time(s)
Antarctica


ЦИТАТА(SSWolf88 @ Oct 12 2018, 11:21:58) *
Вопрос по видеоклипу: и что за дебильная мода в последнее десятилетие пошла у вокалистов "блэцк митол" групп бриться налысо и отращивать себе якобы "викингские" бороды? Всемирную секту криптоговнарей сколотили, что ли? (IMG:style_emoticons/default/smile3.gif)

Из пингвинов в варяги


Thanks:
Go to the top of the page
  Insert nick Quick quote
+Quote Post

Reply to this topicStart new topic
2 User(s) are reading this topic (2 Guests and 0 Anonymous Users)
0 Members:

 



- Lo-Fi Version Support form
Copyrights and abuse reports form
Time is now: 20th October 2018 - 00:36:44