Welcome Guest ( Log In | Register )

> Правила / Rules

Тут только для чтения лежат низкобитрейтные (<192kbps) релизы, для которых есть аналоги в высокобитрейтных форумах.

Here goes (and stand in read only mode) low bitrate releases (<192kbps) which were already replaced by high bitrate releases in corresponding forums.

> Aeternus - Heathen (2018), Black/Death Metal (D)
post Oct 10 2018, 09:22:00
Post #1

Аннигилятор пивА
Group Icon
Group: V.I.P
Posts: 49,361
Releases: 15223
From: Koenigsberg - TILZIT
On Forums: 12 years 4 months
Thanks: 332393 time(s)
Russian Federation


(IMG:https://metalarea.org/images/audiocovers/2018_Oct/acov_tid311574_thumb.jpg)

*Artist: Aeternus
*Album: Heathen
*Year: 2018
*Genre: Black/Death Metal
*Country: Norway (IMG:https://metalarea.org/forum/style_images/flags/Norway.png)
*Format: mp3@CBR128kbps (IMG:https://metalarea.org/images/bit_low.gif)
*Size: 33MB

Tracklist:
1. Hedning 06:06
2. The Sword of Retribution 04:49
3. Conjuring of the Gentiles 06:26
4. The Significance of Iblis 03:58
5. How Opaque the Disguise of the Adversary 04:31
6. Boudica 04:48
7. ‘Illa Mayyit 05:06
******************************
Total playing time: 35:44



Extended info
Ares - Vocals, Guitars (1993-present), Keyboards (1995), Bass (2012) See also: ex-Lux Axiomus, ex-Örth, ex-Arvas, ex-Gorgoroth, ex-Black Hole Generator, ex-Gravdal, ex-Grimfist, ex-Immortal, ex-Malignant Eternal, ex-Chaos Predicted, ex-Corona Borealis (Nor)
Phobos - Drums (2007-present) See also: Gravdal, ex-Malsain, Trollberg, ex-Galar, ex-Gorgoroth, ex-Sulphur, ex-ASPG, ex-Transylvania
Frode Kilvik - Bass (2013-present) See also: Gravdal, Kraków, Malignant Eternal, Taake, ex-Viðr, Gaahls Wyrd


Technical info
(IMG:https://metalarea.org/images/spectrogram/2018_Oct/16059b5c33c552e1d4f48574c4d32fae.png)
Input File: 02. The Sword of Retribution.mp3
Channels : 2
Sample Rate : 44100
Precision : 16-bit
Duration : 00:04:49.78 = 12779166 samples = 21733.3 CDDA sectors
File Size : 4.64M
Bit Rate : 128k
Sample Encoding: MPEG audio (layer I, II or III)
Comments :
Title=The Sword of Retribution
Artist=Aeternus
Album=Heathen
Tracknumber=02
Year=2018



Register


Go to the top of the page
  Insert nick Quick quote
+Quote Post
 
Start new topic
Replies (1 - 2)
post Oct 10 2018, 19:35:13
Post #2

Литр
*
Group: Подсевший
Posts: 79
Releases: 0
On Forums: 3 months 17 hours
Thanks: 100 time(s)
Russian Federation


Не вяжется у меня этот альбом с блэк/дэт, скорее здесь экстремальный прогрессив по типу поздних Enslaved и немного Emperor. Присутствуют диссонансы, моменты с разреженной атмосферой и явный пост налет, при этом материал цельный и сильный, выверенный. Такая эволюция меня устраивает.
Go to the top of the page
  Insert nick Quick quote
+Quote Post
post Oct 11 2018, 12:18:13
Post #3
BAN
Banned till
Oct 20 2018, 09:33:06



320
Register
Go to the top of the page
  Insert nick Quick quote
+Quote Post

Причина закрытия (DarkHorde 11-10-2018): Aeternus - Heathen (2018)
Closed TopicStart new topic
2 User(s) are reading this topic (2 Guests and 0 Anonymous Users)
0 Members:

 



- Lo-Fi Version Support form
Copyrights and abuse reports form
Time is now: 15th October 2018 - 11:15:31