Welcome Guest ( Log In | Register )

> Dogme - Dark Matter (2018), Atmospheric Doom Metal
post Oct 10 2018, 10:37:06
Post #1

Аннигилятор пивА
Group Icon
Group: V.I.P
Posts: 50,768
Releases: 15821
From: Koenigsberg - TILZIT
On Forums: 12 years 6 months
Thanks: 345051 time(s)
Russian Federation


(IMG:https://metalarea.org/images/audiocovers/2018_Oct/acov_tid311582_thumb.jpg)

*Artist: Dogme
*Album: Dark Matter
*Year: 2018
*Genre: Atmospheric Doom Metal
*Country: France (IMG:https://metalarea.org/forum/style_images/flags/France.png)
*Format: mp3@CBR320kbps
*Size: 109MB

Tracklist:
1. Cold 03:09
2. Dark Matter 11:52
3. Full Moon 06:29
4. Dying Light 03:15
5. Rise 07:52
6. Dark Energy 07:47
7. Fall Equinox (Bonus) 06:23
******************************
Total playing time: 46:47



Extended info
Instrumental


Technical info
(IMG:https://metalarea.org/images/spectrogram/2018_Oct/9b5942ff1794389b533348236391f6ed.png)
Input File: Dogme - Dark matter - 03 Full moon.mp3
Channels : 2
Sample Rate : 44100
Precision : 16-bit
Duration : 00:06:29.98 = 17198118 samples = 29248.5 CDDA sectors
File Size : 15.7M
Bit Rate : 322k
Sample Encoding: MPEG audio (layer I, II or III)
Comments :
Title=Full moon
Artist=Dogme
Album=Dark matter
Tracknumber=3
Year=2018



Register


Go to the top of the page
  Insert nick Quick quote
+Quote Post
 
Start new topic
Replies (1 - 1)
post Oct 11 2018, 07:40:57
Post #2

Пять Литров
*****
Group: Металариец
Posts: 445
Releases: 5
From: Ивантеевка, Московская область
On Forums: 10 years 11 months
Thanks: 134 time(s)
Russian Federation


Не "жуть во мраке", но близко. Впустую потраченное время.
Go to the top of the page
  Insert nick Quick quote
+Quote Post

Reply to this topicStart new topic
1 User(s) are reading this topic (1 Guests and 0 Anonymous Users)
0 Members:

 



- Lo-Fi Version Support form
Copyrights and abuse reports form
Time is now: 12th December 2018 - 07:05:41