Welcome Guest ( Log In | Register )

> Dimensions - Monoliths (2018), Black Metal (D6)
post Oct 10 2018, 10:46:44
Post #1

Аннигилятор пивА
Group Icon
Group: V.I.P
Posts: 50,763
Releases: 15819
From: Koenigsberg - TILZIT
On Forums: 12 years 6 months
Thanks: 345049 time(s)
Russian Federation


(IMG:https://metalarea.org/images/audiocovers/2018_Oct/acov_tid311583_thumb.jpg)

*Artist: Dimensions
*Album: Monoliths
*Year: 2018
*Genre: Black Metal
*Country: United States (IMG:https://metalarea.org/forum/style_images/flags/United%20States.png)
*Format: mp3@CBR320kbps
*Size: 66MB

Tracklist:
1. My Will the Devil 04:28
2. Temple of the Sun 09:53
3. Under the Power of the Magickian 07:37
4. The Cursed and the Wretched 06:42
******************************
Total playing time: 28:40



Extended info
Occult Black Metal From United States

Hag - Vocals/Drums (Kult ov Azazel, Tunnels of Typhon, Felo de Se, ex-Pact)
Thoth Atlantean - Vocals/Guitars/Bass (Pact, Sanctum Atlantis, Son of Kush)


Technical info
(IMG:https://metalarea.org/images/spectrogram/2018_Oct/961be21f88ce46592089d5431b541a7f.png)
Input File: 03 Under the Power of the Magickian.mp3
Channels : 2
Sample Rate : 44100
Precision : 16-bit
Duration : 00:07:37.51 = 20176059 samples = 34313 CDDA sectors
File Size : 18.4M
Bit Rate : 322k
Sample Encoding: MPEG audio (layer I, II or III)
Comments :
Title=Under the Power of the Magickian
Artist=Dimensions USBM
Album=Monoliths
Tracknumber=3
Year=2018



Register


Go to the top of the page
  Insert nick Quick quote
+Quote Post
 
Start new topic
Replies (1 - 1)
post Oct 10 2018, 17:32:24
Post #2

De Mysteriis Dom Sathanas
**************
Group: Металариец
Posts: 3,347
Releases: 63
From: Москва
On Forums: 10 years 4 months
Thanks: 2865 time(s)
Russian Federation


В архивах пишут епиха, ну да ладно-это не важно...а вот 4 полноформатника за 2018 и эта епиха - это как бы намекает на стахановщину)
Go to the top of the page
  Insert nick Quick quote
+Quote Post

Reply to this topicStart new topic
1 User(s) are reading this topic (1 Guests and 0 Anonymous Users)
0 Members:

 



- Lo-Fi Version Support form
Copyrights and abuse reports form
Time is now: 12th December 2018 - 06:06:42