Welcome Guest ( Log In | Register )

 
Reply to this topicStart new topic
> Avator - The 4 Whoresmen (2018), Heavy/Thrash Metal
post Oct 10 2018, 12:16:22
Post #1

Аннигилятор пивА
Group Icon
Group: V.I.P
Posts: 50,765
Releases: 15821
From: Koenigsberg - TILZIT
On Forums: 12 years 6 months
Thanks: 345050 time(s)
Russian Federation


(IMG:https://metalarea.org/images/audiocovers/2018_Oct/acov_tid311585_thumb.jpg)

*Artist: Avator
*Album: The 4 Whoresmen
*Year: 2018
*Genre: Heavy/Thrash Metal
*Country: Germany (IMG:https://metalarea.org/forum/style_images/flags/Germany.png)
*Format: mp3@CBR320kbps
*Size: 109MB

Tracklist:
01. Hard School 04:48
02. Charging the Room 04:23
03. This Is an Illusion 02:57
04. 5, 4, Metal! 04:01
05. Mr. Possibility 03:07
06. Blood in and Out 03:40
07. Torn by the Sins 03:56
08. The Program Intro 00:34
09. The Program 03:03
10. Humanity's Dust 03:46
11. Can You Hear Me? 04:38
12. Cold Whore / Born to Serve 03:38
13. Hagen (Live At Servus Transsilvania Fest No. 3) (Bonus Track) 03:24
******************************
Total playing time: 45:55




Extended info
Thomas Kratz - Guitars
Andreas "Mr. Possibility" Honsberg - Guitars, Vocals (Cryptic)
Maurice "No Comment" Josupeit - Drums (2006-present)


Technical info
(IMG:https://metalarea.org/images/spectrogram/2018_Oct/a0c15a735d364e9412a2193fd4bcec07.png)
Input File: 02 - Charging the Room.mp3
Channels : 2
Sample Rate : 44100
Precision : 16-bit
Duration : 00:04:23.72 = 11630052 samples = 19779 CDDA sectors
File Size : 10.7M
Bit Rate : 324k
Sample Encoding: MPEG audio (layer I, II or III)
Comments :
Title=Charging the Room
Artist=Avator
Album=The 4 Whoresmen
Tracknumber=2
Year=2018



Register


Go to the top of the page
  Insert nick Quick quote
+Quote Post

Reply to this topicStart new topic
1 User(s) are reading this topic (1 Guests and 0 Anonymous Users)
0 Members:

 



- Lo-Fi Version Support form
Copyrights and abuse reports form
Time is now: 12th December 2018 - 06:20:04