Welcome Guest ( Log In | Register )

 
Reply to this topicStart new topic
> Cannabinoid Hyperemesis Syndrome - A Specific Cause Of Cyclical Vomiting [ep] (2018), Goregrind
post Oct 10 2018, 12:25:02
Post #1

Serial Uploader
Group Icon
Group: V.I.P
Posts: 33,390
Releases: 31660
From: Lithuania
On Forums: 10 years 6 months
Thanks: 361703 time(s)
Lithuania


(IMG:https://metalarea.org/images/audiocovers/2018_Oct/acov_tid311586_thumb.jpg)

*Artist: Cannabinoid Hyperemesis Syndrome
*Album: A Specific Cause Of Cyclical Vomiting [ep]
*Year: 2018
*Genre: Goregrind
*Country: Spain (IMG:https://metalarea.org/forum/style_images/flags/Spain.png)
*Format: mp3@CBR320kbps
*Size: 16MB

Tracklist:
01. Cannabic-Vomitive Sensation 00:28
02. Vaporized Death 00:22
03. Face-Deformed Cogollo 00:30
04. Caterpillar Larva Infestation 00:32
05. Purulent Regurgitation 00:03
06. Voy A Dejarte Como Un Colador (Con La Ceniza De Mi Porro De Hachis) 00:02
07. Welcome To Tijuana, Machetes, Cráneos Y Marihuana 00:04
08. Skullbong 00:11
09. Dismembered Pothead 00:38
10. Breathing Your Cadaveric Gases 00:29
11. Twenty-Meters Puke Shot 00:15
12. Explosión Gastrica De Cocaína 00:12
13. Orverry Corpse 00:27
14. Self-Fecunded Femme Haze 00:06
15. Boweljoint Inhalation 00:05
16. Irrigation System With Viscera Remains 00:20
17. Gore-Induced Rastafari 00:13
18. Crystallized Lungs By Excessive Fungi Smoke 00:26
19. Human Cuttings 00:07
******************************
Total playing time: 5:30



Technical info
(IMG:https://metalarea.org/images/spectrogram/2018_Oct/0a864f34587f9eb246c8c274e8c3f48c.png)
Input File: 02. Vaporized Death.mp3
Channels : 2
Sample Rate : 44100
Precision : 16-bit
Duration : 00:00:22.68 = 999968 samples = 1700.63 CDDA sectors
File Size : 1.06M
Bit Rate : 375k
Sample Encoding: MPEG audio (layer I, II or III)
Comments :
Title=Vaporized Death
Artist=Cannabinoid Hyperemesis Syndrome
Album=A Specific Cause of Cyclical Vomiting
Tracknumber=2
Year=2018



Register


Thanks:
Go to the top of the page
  Insert nick Quick quote
+Quote Post

Reply to this topicStart new topic
1 User(s) are reading this topic (1 Guests and 0 Anonymous Users)
0 Members:

 



- Lo-Fi Version Support form
Copyrights and abuse reports form
Time is now: 12th December 2018 - 05:48:10