Welcome Guest ( Log In | Register )

 
Reply to this topicStart new topic
> Gorecock - Brie!! (2018), Goregrind
post Oct 10 2018, 12:41:54
Post #1

Serial Uploader
Group Icon
Group: V.I.P
Posts: 33,390
Releases: 31660
From: Lithuania
On Forums: 10 years 6 months
Thanks: 361705 time(s)
Lithuania


(IMG:https://metalarea.org/images/audiocovers/2018_Oct/acov_tid311587_thumb.jpg)

*Artist: Gorecock
*Album: Brie!!
*Year: 2018
*Genre: Goregrind
*Country: United States (IMG:https://metalarea.org/forum/style_images/flags/United%20States.png)
*Format: mp3@CBR320kbps
*Size: 74MB

Tracklist:
01. Robbing The Sperm Bank 02:12
02. Testicular Christmas Parasites 00:52
03. A Capella, With Only The Deepest Throat 01:09
04. Cum Out Your Eyes 01:21
05. Raped And Beaten Into Oblivion 03:01
06. Philharmonic Gorchestra 01:57
07. Organ Grinder 00:50
08. A Giant Veiny Triumphant Boner 00:24
09. Mr03 PR0N PL0X 02:31
10. McBorted 00:43
11. Kidnapped By Gorecock And Forced To Eat Your Own Balls 01:03
12. Fishrape 01:05
13. Bottled Dolphin Fetuses (BP Did The Right Thing) 01:59
14. Dick Basket: The Voyage Of Truth 03:01
15. Decapitating The Jonas Brothers 01:40
16. Beating Vegans To Death With Dead Animals 01:19
17. Forced To Drink Vomited Semen Off A Dirty Nightclub Bathroom Floor 09:00
******************************
Total playing time: 34:07

(IMG:https://metalarea.org/images/myspace.png)




Technical info
(IMG:https://metalarea.org/images/spectrogram/2018_Oct/e61690bbbb785bc252176bcc70ae1a91.png)
Input File: Gorecock - BRIE!! - 02 Testicular Christmas Parasites.mp3
Channels : 2
Sample Rate : 44100
Precision : 16-bit
Duration : 00:00:52.46 = 2313310 samples = 3934.2 CDDA sectors
File Size : 2.21M
Bit Rate : 337k
Sample Encoding: MPEG audio (layer I, II or III)
Comments :
Title=Testicular Christmas Parasites
Artist=Gorecock
Album=BRIE!!
Tracknumber=2
Year=2010



Register


Go to the top of the page
  Insert nick Quick quote
+Quote Post

Reply to this topicStart new topic
1 User(s) are reading this topic (1 Guests and 0 Anonymous Users)
0 Members:

 



- Lo-Fi Version Support form
Copyrights and abuse reports form
Time is now: 12th December 2018 - 06:33:47