Welcome Guest ( Log In | Register )

 
Reply to this topicStart new topic
> Liquid Viscera - Oozing Curdled Fluids [demo] (2018), Death Metal/Goregrind
post Oct 10 2018, 12:54:17
Post #1

Serial Uploader
Group Icon
Group: V.I.P
Posts: 33,390
Releases: 31660
From: Lithuania
On Forums: 10 years 6 months
Thanks: 361703 time(s)
Lithuania


(IMG:https://metalarea.org/images/audiocovers/2018_Oct/acov_tid311588_thumb.jpg)

*Artist: Liquid Viscera
*Album: Oozing Curdled Fluids [demo]
*Year: 2018
*Genre: Death Metal/Goregrind
*Country: United States (IMG:https://metalarea.org/forum/style_images/flags/United%20States.png)
*Format: mp3@CBR320kbps
*Size: 8MB

Tracklist:
01. Swarmed With Maggots 01:15
02. Sepsis 01:06
03. Charred Corpses 01:14
******************************
Total playing time: 3:35



Technical info
(IMG:https://metalarea.org/images/spectrogram/2018_Oct/12e6f917ff53cacc64454ee772d4f6b8.png)
Input File: 02. Sepsis.mp3
Channels : 2
Sample Rate : 44100
Precision : 16-bit
Duration : 00:01:06.38 = 2927358 samples = 4978.5 CDDA sectors
File Size : 2.78M
Bit Rate : 335k
Sample Encoding: MPEG audio (layer I, II or III)
Comments :
Title=Sepsis
Artist=Liquid Viscera
Album=Oozing Curdled Fluids
Tracknumber=2
Year=2018



Register


Go to the top of the page
  Insert nick Quick quote
+Quote Post

Reply to this topicStart new topic
1 User(s) are reading this topic (1 Guests and 0 Anonymous Users)
0 Members:

 



- Lo-Fi Version Support form
Copyrights and abuse reports form
Time is now: 12th December 2018 - 05:48:55