Welcome Guest ( Log In | Register )

> Releases Upload / Добавление релизов

Добавить релиз тут / Click here to add release
Рекомендованные обменники / Recommended file shares

> Més - Through The Eyes Of... (2018), Heavy/Thrash/Groove Metal
post Oct 10 2018, 16:03:24
Post #1
BAN
Banned till
Oct 20 2018, 09:33:06



(IMG:http://metalarea.org/images/audiocovers/2018_Oct/acov_tid311589_thumb.jpg)

*Artist: Més
*Album: Through The Eyes Of...
*Year: 2018
*Genre: Heavy/Thrash/Groove Metal
*Country: France (IMG:http://metalarea.org/forum/style_images/flags/France.png)
*Format: mp3@CBR320kbps
*Size: 134MB

Tracklist:
1. Hellbound 07:22
2. I Lay Down My Law 06:25
3. I Will Never Talk 06:11
4. Turn Back 08:52
5. Prince of Time 06:39
6. War's Part of Me 06:53
7. Without Humanity 05:18
8. It Shall Be Death 04:54
9. You Believe 05:28
10. Your Nightmare 05:34
******************************
Total playing time: 1:03:36



Extended info
Rip from GooglePlay
Hugo Coeurdassier Bass
Nicolas Berchet Guitars (rhythm & lead)
Alexis Sassot Guitars (rhythm & lead)
Jean-Baptiste Batteault Vocals, Drums



Technical info
(IMG:http://metalarea.org/images/spectrogram/2018_Oct/33211425abdb819688cbb76fe8b4038c.png)
Input File: 04 - Turn Back.mp3
Channels : 2
Sample Rate : 44100
Precision : 16-bit
Duration : 00:08:52.01 = 23461773 samples = 39901 CDDA sectors
File Size : 21.3M
Bit Rate : 321k
Sample Encoding: MPEG audio (layer I, II or III)
Comments :
Title=Turn Back
Artist=MÉS
Album=Through the Eyes of...
Tracknumber=4/10
Year=2018
Genre=Метал
Discnumber=1/1



Register


Thanks:
Go to the top of the page
  Insert nick Quick quote
+Quote Post
 
Start new topic
Replies (1 - 1)
post Oct 11 2018, 04:15:33
Post #2
BAN
Banned till
Oct 20 2018, 09:33:06



Cloud Mail 320
Register
Go to the top of the page
  Insert nick Quick quote
+Quote Post

Reply to this topicStart new topic
1 User(s) are reading this topic (1 Guests and 0 Anonymous Users)
0 Members:

 



- Lo-Fi Version Support form
Copyrights and abuse reports form
Time is now: 15th October 2018 - 12:08:21