Welcome Guest ( Log In | Register )

> Releases Upload / Добавление релизов

Добавить релиз тут / Click here to add release
Рекомендованные обменники / Recommended file shares

> Skálmöld - Sorgir (2018), Viking/Folk Metal
post Oct 10 2018, 16:30:47
Post #1
BAN
Banned till
Oct 20 2018, 09:33:06



(IMG:http://metalarea.org/images/audiocovers/2018_Oct/acov_tid311590_thumb.jpg)

*Artist: Skálmöld
*Album: Sorgir
*Year: 2018
*Genre: Viking/Folk Metal
*Country: Iceland (IMG:http://metalarea.org/forum/style_images/flags/Iceland.png)
*Format: mp3@CBR192kbps
*Size: 65MB

Tracklist:
1. Ljósið 05:13
2. Sverðið 06:34
3. Brúnin 04:43
4. Barnið 04:45
5. Skotta 06:54
6. Gangári 04:32
7. Móri 06:39
8. Mara 08:20
******************************
Total playing time: 47:40



Extended info
Snæbjörn Ragnarsson Bass, Vocals, Lyrics
Jón Geir Jóhannsson Drums, Vocals
Baldur Ragnarsson Guitars, Vocals
Þráinn Árni Baldvinsson Guitars, Vocals
Gunnar Ben Keyboards, Vocals, Oboe
Björgvin Sigurðsson Vocals, Guitars


Technical info
(IMG:http://metalarea.org/images/spectrogram/2018_Oct/443c0596cbcd9ebf93617db342ed24ce.png)
Input File: 03 - Brúnin.mp3
Channels : 2
Sample Rate : 44100
Precision : 16-bit
Duration : 00:04:43.27 = 12492295 samples = 21245.4 CDDA sectors
File Size : 6.85M
Bit Rate : 193k
Sample Encoding: MPEG audio (layer I, II or III)
Comments :
Title=Brúnin
Artist=Skálmöld
Album=Sorgir
Tracknumber=3
Year=2018



Register


Go to the top of the page
  Insert nick Quick quote
+Quote Post
 
Start new topic
Replies (1 - 2)
post Oct 11 2018, 04:18:58
Post #2
BAN
Banned till
Oct 20 2018, 09:33:06



Cloud Mail 320 + Bonus track
Register


Go to the top of the page
  Insert nick Quick quote
+Quote Post
post Oct 12 2018, 03:20:15
Post #3

Правь статус, ####!111
**************
Group: Металариец
Posts: 2,077
Releases: 23
From: Nakhodka
On Forums: 8 years 4 months
Thanks: 1651 time(s)
Russian Federation


Бодро и мрачно. Прям очень хорошо.


Go to the top of the page
  Insert nick Quick quote
+Quote Post

Reply to this topicStart new topic
1 User(s) are reading this topic (1 Guests and 0 Anonymous Users)
0 Members:

 



- Lo-Fi Version Support form
Copyrights and abuse reports form
Time is now: 15th October 2018 - 12:35:49